<?xml version="1.0" standalone="no"?>
<!DOCTYPE svg PUBLIC "-//W3C//DTD SVG 1.1//EN" "http://www.w3.org/Graphics/SVG/1.1/DTD/svg11.dtd" >
<svg xmlns="http://www.w3.org/2000/svg">
<metadata>Generated by IcoMoon</metadata>
<defs>
<font id="base-icons" horiz-adv-x="512">
<font-face units-per-em="512" ascent="409.6" descent="-102.4" />
<missing-glyph horiz-adv-x="512" />
<glyph unicode="&#x20;" horiz-adv-x="256" d="" />
<glyph unicode="&#xe600;" glyph-name="icons_politico" horiz-adv-x="2649" d="M74.028 113.466v-200.513h-74.51v493.771h84.427c41.358 0 72.598-2.877 93.704-8.63 21.312-5.759 40.082-16.635 56.286-32.623 28.348-27.717 42.534-62.681 42.534-104.897 0-45.199-15.14-81.016-45.416-107.451-30.275-26.44-71.104-39.653-122.485-39.653h-34.54zM74.028 182.541h27.823c68.44 0 102.656 26.329 102.656 78.992 0 50.952-35.287 76.428-105.856 76.428h-24.623v-155.42zM300.425 162.082c0 69.499 25.476 129.197 76.433 179.085 50.735 49.887 111.716 74.833 182.925 74.833 70.357 0 130.686-25.158 181.002-75.474 50.529-50.317 75.798-110.762 75.798-181.326 0-70.998-25.375-131.226-76.115-180.69-50.957-49.675-112.462-74.51-184.52-74.51-63.751 0-120.996 22.065-171.737 66.198-55.853 48.822-83.786 112.775-83.786 191.884zM375.577 161.277c0-54.538 18.335-99.367 55.005-134.522 36.452-35.139 78.563-52.721 126.321-52.721 51.811 0 95.51 17.895 131.115 53.681 35.605 36.209 53.41 80.3 53.41 132.285 0 52.61-17.588 96.702-52.764 132.286-34.97 35.78-78.25 53.68-129.839 53.68-51.381 0-94.774-17.895-130.161-53.68-35.388-35.367-53.087-79.035-53.087-131.009zM932.405 406.724v-423.737h145.19v-70.029h-219.707v493.765h74.515zM1205.044 406.724v-493.765h-74.515v493.765h74.515zM1445.772 336.69v-423.732h-74.515v423.732h-113.522v70.034h301.252v-70.034h-113.215zM1686.191 406.724v-493.765h-74.511v493.765h74.511zM2121.764 380.348v-88.109c-43.064 36.029-87.627 54.046-133.673 54.046-50.745 0-93.492-18.229-128.244-54.687-34.964-36.246-52.446-80.587-52.446-133.032 0-51.811 17.482-95.521 52.446-131.125 34.969-35.605 77.822-53.405 128.562-53.405 26.223 0 48.505 4.27 66.839 12.799 10.235 4.26 20.836 10.013 31.817 17.27 10.982 7.247 22.541 15.983 34.699 26.217v-90.016c-42.64-24.205-87.41-36.305-134.31-36.305-70.574 0-130.803 24.623-180.689 73.875-49.68 49.681-74.515 109.586-74.515 179.726 0 62.893 20.787 118.968 62.363 168.214 51.164 60.334 117.362 90.504 198.59 90.504 44.346 0 87.198-11.993 128.562-35.97zM2132.867 162.082c0 69.499 25.481 129.197 76.439 179.085 50.735 49.887 111.715 74.833 182.925 74.833 70.357 0 130.686-25.158 181.002-75.474 50.528-50.317 75.798-110.762 75.798-181.326 0-70.998-25.37-131.226-76.115-180.69-50.952-49.675-112.457-74.51-184.52-74.51-63.745 0-120.986 22.065-171.731 66.198-55.863 48.822-83.797 112.775-83.797 191.884zM2208.024 161.277c0-54.538 18.335-99.367 55.005-134.522 36.458-35.139 78.563-52.721 126.32-52.721 51.811 0 95.521 17.895 131.115 53.681 35.605 36.209 53.416 80.3 53.416 132.285 0 52.61-17.593 96.702-52.769 132.286-34.97 35.78-78.251 53.68-129.838 53.68-51.381 0-94.769-17.895-130.162-53.68-35.388-35.367-53.087-79.035-53.087-131.009z" />
<glyph unicode="&#xe601;" glyph-name="icons_pro" horiz-adv-x="3787" d="M2741.167-86.88h-31.403v493.193h86.997c38.583 0 75.87-2.62 106.606-28.782 30.1-25.51 44.491-62.79 44.491-101.38 0-35.319-13.74-74.568-41.211-97.457-30.1-26.169-71.303-31.402-109.887-31.402h-55.595v-234.171zM2798.057 176.732c32.046 0 60.829 3.916 86.338 26.805 21.594 19.625 32.046 45.135 32.046 73.917 0 30.736-12.407 61.487-37.273 79.801-24.851 18.974-56.238 19.625-86.323 19.625h-51.678v-200.148h56.889zM3787.798 159.72c0-138.668-117.082-253.137-255.735-253.137-138.668 0-255.773 114.476-255.773 253.137 0 138.668 116.43 253.129 255.773 253.129 138.66 0 255.735-114.461 255.735-253.129zM3307.686 159.72c0-121.664 101.388-223.703 224.378-223.703 122.308 0 224.34 102.698 224.34 223.703 0 121.657-102.032 223.703-224.34 223.703-122.982 0-224.378-102.047-224.378-223.703zM3301.945-86.88l-165.253 238.193c57.291 13.361 95.579 55.496 95.579 124.179 0 41.855-14.391 81.112-49.717 105.963-33.356 24.199-72.591 24.858-112.492 24.858h-61.488v-493.194h31.395v233.52h51.019c3.856-0.060 7.612 0.076 11.369 0.22l162.164-233.74h37.424zM3079.862 176.073h-39.909v200.807h20.269c28.789 0 62.139 1.31 88.307-11.119 35.311-15.701 52.338-52.322 52.338-88.959 0-29.426-11.134-58.867-34.69-77.833-24.828-21.601-55.579-22.897-86.316-22.897zM74.469 113.336v-200.375h-74.469v493.451h84.369c41.347 0 72.561-2.878 93.655-8.627 21.298-5.749 40.053-16.61 56.246-32.6 28.335-27.707 42.506-62.646 42.506-104.834 0-45.172-15.133-80.96-45.385-107.402-30.259-26.404-71.061-39.613-122.406-39.613h-34.516zM74.469 182.374h27.805c68.395 0 102.593 26.313 102.593 78.938 0 50.922-35.266 76.386-105.788 76.386h-24.608v-155.324zM300.718 161.924c0 69.456 25.464 129.117 76.385 178.97 50.709 49.854 111.651 74.788 182.818 74.788 70.311 0 130.601-25.139 180.887-75.424 50.497-50.285 75.75-110.689 75.75-181.228 0-70.924-25.366-131.117-76.067-180.554-50.922-49.664-112.394-74.485-184.409-74.485-63.721 0-120.922 22.041-171.631 66.153-55.807 48.801-83.733 112.726-83.733 191.779zM375.831 161.121c0-54.504 18.322-99.305 54.974-134.442 36.425-35.121 78.514-52.693 126.232-52.693 51.777 0 95.457 17.89 131.041 53.656 35.583 36.174 53.375 80.241 53.375 132.2 0 52.588-17.58 96.654-52.731 132.208-34.947 35.757-78.203 53.656-129.761 53.656-51.346 0-94.715-17.89-130.072-53.656-35.371-35.349-53.057-78.984-53.057-130.928zM932.299 406.411v-423.48h145.098v-69.963h-219.568v493.443h74.47zM1206.735 406.411v-493.451h-74.462v493.451h74.462zM1447.314 336.418v-423.457h-74.462v423.457h-113.454v69.993h301.066v-69.993h-113.151zM1687.598 406.411v-493.451h-74.462v493.451h74.462zM2125.515 380.046v-88.057c-43.037 36-87.565 54.019-133.586 54.019-50.725 0-93.443-18.224-128.163-54.663-34.939-36.212-52.421-80.529-52.421-132.935 0-51.793 17.481-95.472 52.421-131.049 34.947-35.598 77.772-53.375 128.481-53.375 26.207 0 48.483 4.264 66.789 12.801 10.233 4.241 20.836 10.005 31.804 17.254 10.983 7.248 22.541 15.989 34.675 26.222v-89.966c-42.628-24.2-87.353-36.288-134.215-36.288-70.539 0-130.723 24.616-180.584 73.841-49.657 49.641-74.469 109.507-74.469 179.614 0 62.843 20.768 118.884 62.321 168.101 51.126 60.276 117.302 90.436 198.474 90.436 44.302 0 87.133-11.99 128.474-35.954zM2136.626 161.924c0 69.456 25.45 129.117 76.37 178.97 50.724 49.854 111.659 74.788 182.826 74.788 70.311 0 130.594-25.139 180.872-75.424 50.512-50.285 75.757-110.689 75.757-181.228 0-70.924-25.358-131.117-76.075-180.554-50.914-49.664-112.386-74.485-184.394-74.485-63.706 0-120.914 22.041-171.631 66.153-55.822 48.801-83.725 112.726-83.725 191.779zM2211.716 161.121c0-54.504 18.329-99.305 54.981-134.442 36.439-35.121 78.506-52.693 126.231-52.693 51.793 0 95.48 17.89 131.041 53.656 35.576 36.174 53.39 80.241 53.39 132.2 0 52.588-17.595 96.654-52.747 132.208-34.948 35.757-78.204 53.656-129.753 53.656-51.361 0-94.707-17.89-130.072-53.656-35.379-35.349-53.073-78.984-53.073-130.928z" />
<glyph unicode="&#xe602;" glyph-name="icons_magazine" horiz-adv-x="5916" d="M74.472 113.346v-200.389h-74.472v493.447h84.375c41.329 0 72.555-2.875 93.639-8.625 21.298-5.75 40.052-16.624 56.25-32.597 28.326-27.699 42.501-62.639 42.501-104.832 0-45.163-15.134-80.968-45.388-107.389s-71.064-39.626-122.403-39.626h-34.502zM74.472 182.375h27.805c68.389 0 102.597 26.315 102.597 78.944 0 50.925-35.272 76.376-105.791 76.376h-24.611v-155.321zM300.714 161.929c0 69.454 25.462 129.112 76.388 178.973 50.7 49.861 111.648 74.791 182.807 74.791 70.307 0 130.603-25.144 180.889-75.43 50.5-50.286 75.75-110.689 75.75-181.209 0-70.958-25.356-131.148-76.069-180.582-50.926-49.647-112.394-74.459-184.404-74.459-63.716 0-120.913 22.043-171.625 66.154-55.824 48.784-83.736 112.701-83.736 191.763zM375.824 161.124c0-54.499 18.328-99.307 54.972-134.437 36.431-35.118 78.506-52.688 126.237-52.688 51.778 0 95.45 17.89 131.029 53.647 35.579 36.183 53.375 80.257 53.375 132.2 0 52.582-17.582 96.645-52.736 132.201-34.952 35.757-78.198 53.647-129.751 53.647-51.351 0-94.716-17.89-130.082-53.647-35.355-35.342-53.043-78.98-53.043-130.923zM932.289 406.404v-423.46h145.098v-69.987h-219.557v493.447h74.46zM1204.759 406.404v-493.447h-74.472v493.447h74.472zM1445.342 336.417v-423.46h-74.472v423.46h-113.447v69.987h301.057v-69.987h-113.139zM1685.605 406.404v-493.447h-74.459v493.447h74.459zM2120.898 380.054v-88.055c-43.034 36.005-87.57 54.014-133.585 54.014-50.713 0-93.427-18.221-128.166-54.653-34.94-36.218-52.417-80.541-52.417-132.946 0-51.778 17.476-95.462 52.417-131.041s77.773-53.375 128.474-53.375c26.208 0 48.476 4.26 66.804 12.79 10.223 4.26 20.825 10.010 31.793 17.263 10.98 7.241 22.528 15.973 34.68 26.197v-89.96c-42.619-24.185-87.357-36.278-134.224-36.278-70.532 0-130.722 24.611-180.57 73.821-49.648 49.647-74.472 109.518-74.472 179.612 0 62.852 20.777 118.889 62.32 168.111 51.127 60.297 117.292 90.445 198.472 90.445 44.312 0 87.143-11.986 128.473-35.946zM2131.997 161.929c0 69.454 25.463 129.112 76.388 178.973 50.7 49.861 111.648 74.791 182.807 74.791 70.307 0 130.603-25.144 180.889-75.43 50.499-50.286 75.749-110.689 75.749-181.209 0-70.958-25.356-131.148-76.069-180.582-50.925-49.647-112.381-74.459-184.404-74.459-63.704 0-120.912 22.043-171.625 66.154-55.824 48.784-83.736 112.701-83.736 191.763zM2207.106 161.124c0-54.499 18.328-99.307 54.972-134.437 36.431-35.118 78.518-52.688 126.237-52.688 51.778 0 95.461 17.89 131.029 53.647 35.579 36.183 53.387 80.257 53.387 132.2 0 52.582-17.582 96.645-52.736 132.201-34.941 35.757-78.198 53.647-129.751 53.647-51.352 0-94.704-17.89-130.082-53.647-35.366-35.342-53.055-78.98-53.055-130.923zM4196.041 150.475c1.314-62.178-7.856-116.499-51.707-164.278-47.115-51.055-117.8-79.855-187.173-79.855-136.791 0-253.278 115.186-253.278 251.315 0 141.371 115.836 255.242 257.207 255.242 89.664 0 162.313-44.5 214.019-115.186l-25.533-20.292c-43.838 65.443-110.607 106.027-190.45 106.027-120.427 0-223.829-105.365-223.829-223.828 0-121.729 100.798-223.828 223.829-223.828 53.020 0 104.726 21.594 145.298 54.322 42.548 35.994 58.249 77.229 60.213 130.899h-176.713v29.45h208.116zM4968.632-57.664v-29.45h-347.534l301.057 464.020h-272.245v29.462h327.23l-301.057-464.021h292.55zM5079.854-87.114h-31.414v493.482h31.414v-493.482zM5711.606 376.907v-179.316h198.969v-29.462h-198.969v-225.793h204.199v-29.45h-235.613v493.482h235.613v-29.45h-204.199zM2806.12 321.284h1.314l164.857-408.398h13.24l165.496 408.398h1.314l84.423-408.398h30.113l-102.632 493.53h-10.010l-175.329-432.654-174.702 432.654h-9.986l-102.632-493.53h30.113zM3332.307-87.114l66.106 162.313h216.635l66.106-162.313h32.065l-199.561 493.53h-13.229l-200.2-493.53h32.077zM3507.055 342.878l96.219-238.228h-193.077l96.858 238.228zM4218.64-87.114l66.106 162.313h216.635l66.106-162.313h32.053l-199.537 493.53h-13.229l-200.212-493.53h32.077zM4393.4 342.878l96.195-238.228h-193.077l96.882 238.228zM5156.691-87.635h31.414v424.099l398.896-424.099h15.382v493.471h-31.414v-430.642l-408.126 430.689h-6.153z" />
<glyph unicode="&#xe603;" glyph-name="icons_menu" d="M0 356.926v-78.777h512v78.777h-512zM0 120.613h512v78.776h-512v-78.776zM0-36.925h512v78.781h-512v-78.781z" />
<glyph unicode="&#xe604;" glyph-name="icons_search" d="M313.5 415.88c-109.562 0-198.38-88.818-198.38-198.38 0-40.46 12.123-78.083 32.919-109.457l-129.968-99.286c-23.937-23.937-23.937-62.748 0-86.685s62.748-23.937 86.684 0l99.286 129.968c31.374-20.796 68.997-32.919 109.457-32.919 109.562 0 198.38 88.817 198.38 198.38s-88.817 198.379-198.379 198.379zM313.5 75.053c-78.672 0-142.447 63.776-142.447 142.448s63.775 142.447 142.447 142.447 142.447-63.775 142.447-142.447-63.776-142.448-142.447-142.448z" />
<glyph unicode="&#xe605;" glyph-name="icons_logged-in" d="M337.39 77.525c-3.486 1.652-6.259 3.821-8.481 6.266-22.748-17.805-47.507-27.202-72.91-27.202s-50.16 9.396-72.909 27.202c-2.222-2.446-4.994-4.614-8.481-6.266-20.061-9.502-139.37-11.614-139.37-115.087v-31.675c0 0 102.614-26.396 220.76-26.396s220.76 26.395 220.76 26.395v31.677c0 103.471-119.308 105.582-139.369 115.085zM143.876 182.655c2.4 0.889 4.347 2.686 5.833 5.191 23.395-51.465 62.274-96.173 106.29-96.173s82.895 44.708 106.29 96.173c1.486-2.505 3.433-4.302 5.834-5.19 10.76-3.988 26.483 11.667 35.116 34.965s6.909 45.418-3.851 49.406c-4.507 1.67-9.884-0.115-15.245-4.456 0.875 7.065 1.337 13.897 1.337 20.375-0.001 73.28-57.971 132.685-129.481 132.685s-129.48-59.406-129.48-132.686c0-6.478 0.462-13.311 1.338-20.375-5.362 4.339-10.739 6.125-15.245 4.456-10.76-3.988-12.484-26.107-3.852-49.406s24.355-38.952 35.115-34.964z" />
<glyph unicode="&#xe606;" glyph-name="icons_logged-out" d="M305.364 97.17v1.823c-0.010-0.546-0.012-1.156 0-1.823zM180.574 99.648v-3.154c0.040 1.229 0.030 2.298 0 3.154zM337.135 76.852c-14.623 6.927-16.862 22.849-17.010 30.912-0.012 0.686-0.012 1.314 0 1.875v15.32c16.386 16.936 30.511 39.075 41.365 62.702 1.531-2.937 3.63-5.027 6.281-6.010 10.726-3.975 26.399 11.631 35.005 34.856 8.606 23.226 6.887 45.275-3.839 49.25-4.567 1.692-10.032-0.175-15.466-4.659 1.050 7.786 1.601 15.303 1.601 22.396 0 73.048-57.788 132.266-129.072 132.266s-129.072-59.218-129.072-132.268c0-7.093 0.552-14.611 1.601-22.396-6.001 5.623-11.928 8.42-15.466 4.659-7.838-8.333-12.445-26.025-3.84-49.251s24.278-38.83 35.005-34.856c2.652 0.983 4.75 3.073 6.281 6.010 10.851-23.619 24.97-45.75 41.348-62.684v-14.667c0.030-0.88 0.041-1.979 0-3.242-0.266-8.253-2.781-23.483-16.994-30.216-19.998-9.473-138.931-11.577-138.931-114.724v-31.575c0 0 102.291-26.313 220.065-26.313s220.065 26.313 220.065 26.313v31.575c0.002 103.149-118.932 105.254-138.928 114.727zM256 372.718c49.057 0 88.825-48.060 88.825-98.33s-39.768-138.524-88.825-138.524-88.825 88.251-88.825 138.524 39.768 98.33 88.825 98.33zM430.281-41.621c0 0-94.579-20.188-174.281-20.188s-174.28 20.188-174.28 20.188v4.359c0 57.841 65.37 73.033 105.84 78.727h-0.004c34.771 4.962 41.178 23.387 41.43 35.19 8.73-3.923 17.763-6.074 27.016-6.074s18.286 2.151 27.015 6.072c0.257-12.053 8.815-30.478 41.286-35.169 40.459-5.683 105.98-20.841 105.98-78.746v-4.359z" />
<glyph unicode="&#xe607;" glyph-name="icons_clock" d="M280.907 191.29v78.599c0 12.582-10.198 22.78-22.779 22.78h-0.179c-12.581 0-22.78-10.199-22.78-22.78v-78.6c-9.518-7.023-15.696-18.313-15.696-31.048 0-1.968 0.149-3.9 0.434-5.79l-49.131-49.131c-8.897-8.896-8.897-23.318 0-32.216l0.127-0.126c8.897-8.897 23.319-8.897 32.216 0l49.13 49.13c1.888-0.284 3.82-0.434 5.788-0.434 8.563 0 16.47 2.795 22.869 7.516 9.518 7.023 15.696 18.313 15.696 31.049 0 1.968-0.149 3.9-0.434 5.788-1.557 10.337-7.215 19.325-15.262 25.262zM255.76 416.517c-141.537 0-256.276-114.739-256.276-256.277s114.739-256.277 256.276-256.277 256.277 114.739 256.277 256.277c0 141.537-114.739 256.276-256.276 256.276zM388.651 27.349c-35.497-35.496-82.691-55.045-132.891-55.045-50.198 0-97.393 19.549-132.889 55.045s-55.046 82.691-55.046 132.89c0 50.2 19.549 97.394 55.046 132.89s82.69 55.045 132.889 55.045 97.393-19.549 132.891-55.045c35.496-35.497 55.045-82.691 55.045-132.89-0.001-50.198-19.549-97.393-55.045-132.89z" />
<glyph unicode="&#xe608;" glyph-name="icons_share" d="M344.918 314.804c-3.659 45.948-42.028 82.115-88.916 82.115s-85.257-36.168-88.917-82.113c-19.257-9.255-36.828-21.451-52.209-35.949-28.895-27.236-49.921-62.694-59.321-102.612 14.388 4.837 29.767 7.498 45.763 7.498 4.546 0 9.039-0.238 13.479-0.651 5.773 15.032 13.864 28.919 23.859 41.21 11.642 14.316 25.853 26.446 41.913 35.731 15.821-25.010 43.649-41.667 75.431-41.667s59.611 16.657 75.431 41.667c8.724 13.791 13.848 30.086 13.848 47.612 0.002 2.416-0.171 4.791-0.361 7.162zM461.298 113.227c0.399 5.228 0.668 10.492 0.668 15.82 0 16.241-1.949 32.027-5.521 47.195-9.399 39.918-30.425 75.376-59.32 102.612-4.074-20.003-12.335-38.488-23.781-54.556 9.995-12.29 18.086-26.177 23.858-41.209 6.45-16.794 10.021-35.005 10.021-54.043 0-0.075-0.006-0.149-0.006-0.223-47.69-1.833-85.817-40.965-85.817-89.104 0-14.998 3.74-29.107 10.275-41.516 8.958-17.010 23.254-30.709 40.649-39.012 11.634-5.552 24.604-8.751 38.354-8.751 49.307 0 89.279 39.971 89.279 89.279 0.003 30.505-15.317 57.404-38.658 73.508zM279.809-20.286c-7.759-1.233-15.707-1.89-23.808-1.89s-16.050 0.659-23.81 1.891c-18.64 2.962-36.14 9.36-51.868 18.493 6.534 12.408 10.274 26.517 10.274 41.515 0 48.137-38.125 87.269-85.814 89.103-1.159 0.044-2.295 0.175-3.464 0.175-18.803 0-36.226-5.843-50.615-15.769-23.342-16.105-38.663-43.005-38.663-73.508 0-49.307 39.971-89.279 89.278-89.279 13.751 0 26.723 3.2 38.356 8.752 17.268-11.864 36.423-21.156 56.92-27.343 18.821-5.681 38.757-8.77 59.406-8.77s40.583 3.089 59.404 8.769c-14.959 13.228-27.146 29.507-35.596 47.861z" />
<glyph unicode="&#xe609;" glyph-name="icons_facebook" d="M295.336-95.625h-105.749v255.636h-52.863v88.113h52.864v52.884c0 71.87 29.839 114.618 114.597 114.618h70.581v-88.113h-44.099c-33.005 0-35.197-12.317-35.197-35.29l-0.135-44.099h79.94l-9.358-88.113h-70.581v-255.636z" />
<glyph unicode="&#xe60a;" glyph-name="icons_twitter" d="M512.279 318.964c-18.858-8.364-39.125-14.017-60.395-16.558 21.709 13.014 38.384 33.622 46.236 58.178-20.319-12.051-42.824-20.802-66.777-25.518-19.18 20.437-46.511 33.207-76.756 33.207-58.073 0-105.157-47.082-105.157-105.154 0-8.242 0.93-16.269 2.723-23.965-87.395 4.386-164.881 46.25-216.745 109.872-9.052-15.53-14.238-33.594-14.238-52.866 0-36.483 18.564-68.669 46.781-87.528-17.238 0.547-33.453 5.276-47.63 13.154-0.010-0.44-0.010-0.879-0.010-1.323 0-50.949 36.248-93.449 84.353-103.113-8.824-2.402-18.114-3.688-27.704-3.688-6.776 0-13.363 0.661-19.785 1.887 13.382-41.775 52.217-72.181 98.234-73.027-35.989-28.206-81.331-45.016-130.599-45.016-8.488 0-16.858 0.497-25.085 1.471 46.536-29.837 101.812-47.249 161.196-47.249 193.421 0 299.195 160.236 299.195 299.197 0 4.559-0.103 9.094-0.305 13.605 20.548 14.826 38.375 33.346 52.472 54.433z" />
<glyph unicode="&#xe60b;" glyph-name="icons_linkedin" d="M131.428-58.097v294.315h-97.816v-294.316l97.816 0.001zM82.524 276.387c34.106 0 55.342 22.619 55.342 50.859-0.638 28.87-21.238 50.852-54.696 50.852-33.468 0-55.342-21.981-55.342-50.852 0-28.24 21.228-50.859 54.058-50.859h0.638zM185.561-58.097h97.825v164.359c0 8.794 0.638 17.588 3.224 23.865 7.067 17.58 23.167 35.785 50.188 35.785 35.406 0 49.558-26.999 49.558-66.556v-157.454h97.815v168.757c0 90.399-48.257 132.465-112.623 132.465-52.774 0-75.941-29.504-88.81-49.594h0.646v42.686h-97.825c1.284-27.611-0.001-294.315-0.001-294.315v0z" />
<glyph unicode="&#xe60c;" glyph-name="icons_mail" d="M256 72.917l-215.27 250.644v-327.123h430.541v327.123zM471.271 323.562h-430.541l215.27-147.978z" />
<glyph unicode="&#xe60d;" glyph-name="icons_comment" d="M256 363.381c-127.093 0-230.125-77.277-230.125-172.602 0-51.011 29.689-96.712 76.609-128.307l-14.224-105.852 143.398 62.563c8.002-0.632 16.115-0.985 24.341-0.985 127.094 0 230.125 77.271 230.125 172.581 0 95.324-103.031 172.602-230.125 172.602z" />
<glyph unicode="&#xe60e;" glyph-name="icons_pages" d="M375.438 415.941v-102.377h102.376l-102.376 102.377zM136.56 347.69h-34.126v-375.38h307.13v34.126h-273.003v341.254zM68.31 279.44h-34.125v-375.373l307.128-0.007v34.126h-273.003v341.254zM341.313 415.941h-170.627v-375.38h307.13v238.878h-136.502v136.501z" />
<glyph unicode="&#xe60f;" glyph-name="icons_print" d="M185.797 56.784h138.441v-15.728h-138.441v15.728zM185.797 25.327h138.441v-15.728h-138.441v15.728zM185.797-6.13h138.441v-15.728h-138.441v15.728zM495.856 302.537h-117.961v90.438h-243.789v-90.438h-133.69v-267.38h133.689v-108.132h243.788v108.133h133.69v267.38h-15.726zM70.21 217.998c-13.031 0-23.593 10.563-23.593 23.592s10.563 23.592 23.593 23.592c13.029 0 23.592-10.563 23.592-23.592s-10.563-23.592-23.592-23.592zM346.438-41.518h-180.875v117.962h180.874v-117.962zM346.438 243.557h-180.875v117.962h180.874v-117.962z" />
<glyph unicode="&#xe610;" glyph-name="icons_arrow-down" d="M65.683 255.154h380.633l-190.316-190.309z" />
<glyph unicode="&#xe611;" glyph-name="icons_top" d="M256 229.554l87.913-87.909h102.404l-190.317 190.309-190.316-190.309h102.404zM256 178.354l-190.316-190.308h380.633l-102.404 102.4z" />
<glyph unicode="&#xe612;" glyph-name="icons_camera" d="M431.134 278.378h-42.769l-10.397 48.392c-3.563 12.169-10.165 22.692-22.694 22.692h-198.548c-12.534 0-19.278-10.76-22.694-22.692l-10.398-48.392h-42.773c-31.334 0-56.727-25.396-56.727-56.729v-194.382c0-31.331 25.392-56.729 56.727-56.729h350.272c31.33 0 56.731 25.399 56.731 56.729v194.382c0 31.333-25.401 56.729-56.731 56.729zM255.997 39.851c-52.578 0-95.202 42.622-95.202 95.202 0 52.578 42.624 95.202 95.202 95.202s95.199-42.624 95.199-95.202c0-52.581-42.62-95.202-95.199-95.202zM407.284 167.854c-21.13 0-38.27 17.133-38.27 38.27 0 21.133 17.139 38.27 38.27 38.27 21.14 0 38.274-17.137 38.274-38.27 0-21.137-17.134-38.27-38.274-38.27z" />
<glyph unicode="&#xe613;" glyph-name="icons_play" d="M512 160.005l-373.567-215.678v431.346l373.567-215.668z" />
<glyph unicode="&#xe614;" glyph-name="icons_previous" d="M172.389 160l199.69 199.69-16.235 16.234-215.924-215.924 215.924-215.924 16.235 16.235z" />
<glyph unicode="&#xe615;" glyph-name="icons_next" d="M339.611 160l-199.69-199.69 16.234-16.235 215.924 215.924-215.924 215.924-16.234-16.234z" />
<glyph unicode="&#xe616;" glyph-name="icons_plus" d="M440.32 200.96h-143.36v143.36h-81.92v-143.36h-143.36v-81.92h143.36v-143.36h81.92v143.36h143.36z" />
<glyph unicode="&#xe617;" glyph-name="icons_pro-small" horiz-adv-x="1091" d="M31.756-89.387h-31.756v498.774h87.979c39.020 0 76.73-2.648 107.813-29.108 30.438-25.797 44.994-63.502 44.994-102.531 0-35.721-13.898-75.413-41.674-98.56-30.438-26.464-72.112-31.762-111.132-31.762h-56.224v-236.815zM89.292 177.207c32.407 0 61.522 3.958 87.314 27.112 21.84 19.847 32.407 45.644 32.407 74.752 0 31.088-12.549 62.183-37.696 80.701-25.136 19.186-56.878 19.847-87.303 19.847h-52.259v-202.41h57.537zM1090.239 160.004c0-140.234-118.407-256.004-258.627-256.004-140.24 0-258.67 115.769-258.67 256.004 0 140.236 117.747 255.996 258.67 255.996 140.221 0 258.627-115.761 258.627-255.996zM604.692 160.004c0-123.046 102.538-226.237 226.919-226.237 123.696 0 226.878 103.861 226.878 226.237 0 123.034-103.183 226.235-226.878 226.235-124.385 0-226.919-103.201-226.919-226.235zM598.882-89.387l-167.127 240.889c57.94 13.513 96.662 56.123 96.662 125.586 0 42.331-14.556 82.029-50.283 107.161-33.731 24.473-73.413 25.138-113.769 25.138h-62.187v-498.774h31.749v236.162h51.594c3.899-0.063 7.699 0.074 11.494 0.221l164.002-236.383h37.866zM374.288 176.54h-40.357v203.079h20.499c29.114 0 62.846 1.324 89.31-11.243 35.714-15.88 52.93-52.916 52.93-89.966 0-29.762-11.262-59.532-35.082-78.716-25.123-21.839-56.217-23.154-87.301-23.154z" />
<glyph unicode="&#xe618;" glyph-name="icons_flame" d="M186.228-59.486c0 0-114.743 3.44-95.967 163.942 18.776 160.506 171.077 181.139 139.779 275.151 0 0 60.502-34.394 40.678-111.207-19.82-76.813-16.686-144.458 32.339-139.87s33.38 120.378 33.38 120.378 102.228-49.293 85.534-179.993c-16.693-130.7-99.091-127.253-114.743-128.402-15.644-1.149-8.344 5.723-2.089 28.657 6.26 22.933 17.735 90.573-28.16 120.382 0 0 20.858-51.594-15.649-60.764s-35.465 32.101-26.078 44.712c0 0-55.5-20.995-36.506-85.986 14.602-49.965-12.518-47.001-12.518-47.001z" />
<glyph unicode="&#xe619;" glyph-name="icons_close" d="M476.178 346.749l-33.433 33.43-186.746-186.748-186.746 186.748-33.432-33.429 186.748-186.749-186.748-186.749 33.433-33.429 186.746 186.748 186.746-186.748 33.433 33.429-186.748 186.749z" />
<glyph unicode="&#xe61a;" glyph-name="icons_check" d="M454.86 251.253l-60.682 60.682-182.505-182.506-93.85 93.851-60.682-60.682 154.533-154.533 60.682 60.682z" />
<glyph unicode="&#xe61b;" glyph-name="icons_image" d="M404.87 373.215h-340.382v-383.026h340.382v383.026zM362.226 32.832h-255.097v297.74h255.097v-297.74zM426.192 352.656v-385.31h-340.384v-20.56h361.704v405.87z" />
<glyph unicode="&#xe61c;" glyph-name="icons_poll" d="M68.281 161.252h69.248v-234.44h-69.248v234.441zM208.445 254.695h70.082v-327.884h-70.082v327.884zM384.067 393.19l-82.18-92.608h46.722v-373.77h69.247v373.77h48.39z" />
<glyph unicode="&#xe61d;" glyph-name="icons_magazine-small" horiz-adv-x="3259" d="M1520.328 150.743c1.323-62.846-7.937-117.755-52.263-166.042-47.623-51.605-119.064-80.707-189.183-80.707-138.255 0-256.004 116.425-256.004 254.016 0 142.895 117.083 257.991 259.972 257.991 90.626 0 164.048-44.977 216.324-116.425l-25.805-20.508c-44.313 66.15-111.792 107.165-192.499 107.165-121.723 0-226.236-106.493-226.236-226.235 0-123.040 101.88-226.229 226.236-226.229 53.592 0 105.849 21.824 146.851 54.902 43.010 36.382 58.877 78.055 60.864 132.299h-178.612v29.774h210.354zM2301.227-59.618v-29.768h-351.269l304.284 469.004h-275.168v29.767h330.748l-304.284-469.003h295.689zM2413.638-89.385h-31.755v498.772h31.755v-498.772zM3052.17 379.618v-181.245h201.101v-29.774h-201.101v-228.216h206.392v-29.768h-238.142v498.772h238.142v-29.768h-206.392zM115.48 323.393h1.329l166.635-412.779h13.385l167.274 412.779h1.317l85.334-412.779h30.439l-103.743 498.824h-10.113l-177.212-437.301-176.579 437.301h-10.088l-103.737-498.824h30.433zM647.323-89.385l66.821 164.048h218.957l66.814-164.048h32.407l-201.694 498.824h-13.372l-202.346-498.824h32.413zM823.955 345.224l97.246-240.787h-195.151l97.905 240.787zM1543.175-89.385l66.814 164.048h218.957l66.814-164.048h32.4l-201.688 498.824h-13.366l-202.359-498.824h32.427zM1719.813 345.224l97.227-240.787h-195.151l97.925 240.787zM2491.302-89.92h31.742v428.659l403.193-428.659h15.535v498.771h-31.742v-435.267l-412.512 435.319h-6.217z" />
<glyph unicode="&#xe61e;" glyph-name="icons_election" d="M189.020 206.953l-38.669-40.24 96.673-100.621 255.489 264.963-38.668 40.238-216.752-224.777-58.072 60.437zM431.942 162.73l0.137-2.735c0-103.725-84.090-187.819-187.819-187.819-103.731 0-187.819 84.094-187.819 187.819 0 103.735 84.088 187.819 187.819 187.819 30.453 0 59.119-7.409 84.556-20.273l33.678 35.051c-34.754 20.329-75.065 32.18-118.233 32.18-129.662 0-234.773-105.115-234.773-234.777 0-129.663 105.111-234.768 234.773-234.768 129.66 0 234.774 105.104 234.774 234.768 0 16.049-1.632 31.714-4.7 46.859l-42.392-44.125z" />
<glyph unicode="&#xe61f;" glyph-name="icons_calendar" d="M432.040 384.053v32.008h-96.019v-32.007h-160.037v32.007h-96.023v-32.007h-64.016v-96.013h480.113v96.012h-64.017zM15.944 160h96.020v96.013h-96.020v-96.013zM143.971 160h96.024v96.013h-96.024v-96.013zM272.005 160h96.020v96.013h-96.020v-96.013zM400.037 160h96.019v96.013h-96.019v-96.013zM15.944 31.976h96.020v96.017h-96.020v-96.017zM143.971 31.976h96.024v96.017h-96.024v-96.017zM272.005 31.976h96.020v96.017h-96.020v-96.017zM400.037 31.976h96.019v96.017h-96.019v-96.017zM15.944-96.062h96.020v96.014h-96.020v-96.014zM143.971-96.062h96.024v96.014h-96.024v-96.014zM272.005-96.062h96.020v96.014h-96.020v-96.014zM400.037-96.062h96.019v96.014h-96.019v-96.014z" />
<glyph unicode="&#xe620;" glyph-name="icons_previous-fat" d="M422.488 314.547l-89.215 89.209-243.761-243.764 243.761-243.748 89.215 89.209-154.55 154.542z" />
<glyph unicode="&#xe621;" glyph-name="icons_next-fat" d="M89.512 314.547l89.215 89.209 243.761-243.764-243.761-243.748-89.215 89.209 154.55 154.542z" />
<glyph unicode="&#xe622;" glyph-name="icons_up-fat" d="M101.453-6.488l-89.209 89.215 243.764 243.761 243.748-243.761-89.209-89.215-154.542 154.551z" />
<glyph unicode="&#xe623;" glyph-name="icons_table" d="M186.179-96.007h139.638v139.647h-139.638v-139.647zM215.276 14.551h81.447v-81.464h-81.447v81.464zM0 90.191h139.632v139.623h-139.632v-139.623zM0 276.36h139.632v139.647h-139.632v-139.647zM186.179 90.191h139.638v139.623h-139.638v-139.623zM215.276 200.711h81.447v-81.423h-81.447v81.423zM372.362 90.191h139.638v139.623h-139.638v-139.623zM401.454 200.711h81.455v-81.423h-81.455v81.423zM186.179 276.36h139.638v139.647h-139.638v-139.647zM372.362 416.007v-139.647h139.638v139.647h-139.638zM372.362-96.007h139.638v139.647h-139.638v-139.647zM401.454 14.551h81.455v-81.464h-81.455v81.464zM0-96.007h139.632v139.647h-139.632v-139.647z" />
<glyph unicode="&#xe624;" glyph-name="icons_ap" d="M98.897 305.257l-97.969-291.012h71.059l66.671 206.044 33.411-103.002h-43.227l-17.255-58.815h79.554l14.346-44.226h73.097l-97.966 291.012h-81.722zM390.26 305.756h-102.036v-291.512h70.561v232.718h28.433c32.987 0 51.772-15.589 51.772-43.727 0-27.653-18.784-43.745-51.772-43.745h-4.566v-58.794h7.608c76.132 0 120.813 39.205 120.813 102.54-0.001 65.838-44.682 102.522-120.813 102.522z" />
<glyph unicode="&#xe625;" glyph-name="icons_balance-up" d="M140.731 46.088l115.258 137.963 115.258-137.963h75.070l-190.328 227.823-190.305-227.823z" />
<glyph unicode="&#xe626;" glyph-name="icons_rss" d="M163.234 13.938c0-29.253-23.719-52.963-52.964-52.963-29.243 0-52.962 23.709-52.962 52.963s23.719 52.964 52.962 52.964c29.244-0.001 52.964-23.71 52.964-52.964zM57.37 147.462c49.633 0 96.273-19.4 131.333-54.629 35.112-35.277 54.448-82.235 54.448-132.229h76.465c0 145.195-117.644 263.322-262.245 263.322v-76.465zM57.483 283.013c176.859 0 320.743-144.671 320.743-322.49h76.465c0 219.986-178.188 398.956-397.209 398.956v-76.465z" />
<glyph unicode="&#xe627;" glyph-name="icons_magazine-bug" d="M26.957 254.353h-26.957v-242.623h161.739c0 0-18.112 26.976-84.24 26.976-23.587 0-50.544 0-50.544 0v215.647zM53.913 308.262v-242.605h80.87c61.936 0 92.459-27.625 107.826-44.253v252.885c-15.643 14.963-47.601 33.981-109.495 33.981l-79.201-0.008zM485.043 254.353h26.957v-242.623h-161.739c0 0 18.111 26.976 84.24 26.976 23.587 0 50.543 0 50.543 0v215.647zM458.087 308.262v-242.605h-80.87c-61.937 0-92.459-27.625-107.826-44.253v252.885c15.644 14.963 47.601 33.981 109.495 33.981l79.202-0.008z" />
<glyph unicode="&#xe628;" glyph-name="icons_error" d="M428.415 48.268l-111.733 111.732 111.733 111.733-60.682 60.682-111.733-111.732-111.733 111.732-60.682-60.682 111.733-111.733-111.733-111.732 60.682-60.682 111.733 111.732 111.733-111.732z" />
<glyph unicode="&#xe629;" glyph-name="icons_handle" d="M185.204 345.205l-185.204-185.205 185.204-185.204 15.72 15.721-169.486 169.484 169.486 169.484zM326.796 345.205l-15.721-15.721 169.486-169.484-169.484-169.485 15.719-15.721 185.204 185.205z" />
<glyph unicode="&#xe62a;" glyph-name="icons_calendar-check" d="M15.944-96.062h480.113v352.075h-480.113v-352.075zM160.286 129.344l69.181-69.182 134.534 134.533 44.733-44.732-179.266-179.266-113.914 113.914 44.731 44.733zM432.040 384.053v32.008h-96.019v-32.008h-160.038v32.008h-96.023v-32.008h-64.016v-96.014h480.113v96.013z" />
<glyph unicode="&#xe62b;" glyph-name="icons_star" d="M499.19 214.839l-170.233 21.496-72.958 155.976-72.956-155.976-170.234-21.496 125.144-117.891-32.253-169.258 150.298 83.108 150.301-83.108-32.254 169.258z" />
<glyph unicode="&#xe62c;" glyph-name="icons_alert" d="M256 414.099c-140.335 0-254.099-113.767-254.099-254.094 0-140.338 113.763-254.101 254.099-254.101s254.099 113.764 254.099 254.102c0 140.327-113.763 254.095-254.099 254.095zM292.3 14.801h-72.6v72.599h72.6v-72.6zM292.3 123.7h-72.6v181.499h72.6v-181.499z" />
<glyph unicode="&#xe62d;" glyph-name="icons_pin" d="M256 416.135c-106.094 0-192.102-86.005-192.102-192.1 0-106.085 192.102-320.171 192.102-320.171s192.103 214.086 192.103 320.171c0 106.095-86.008 192.1-192.103 192.1zM256 160.002c-35.366 0-64.034 28.674-64.034 64.034 0 35.372 28.668 64.038 64.034 64.038s64.034-28.665 64.034-64.038c0-35.359-28.668-64.034-64.034-64.034z" />
<glyph unicode="&#xe62e;" glyph-name="icons_phone" d="M385.028 416h-258.055c-16.896 0-30.72-13.824-30.72-30.72v-450.56c0-16.896 13.824-30.72 30.72-30.72h258.055c16.896 0 30.72 13.824 30.72 30.72v450.56c0 16.896-13.824 30.72-30.72 30.72zM230.279 392.19h51.44c3.594 0 6.534-2.941 6.534-6.534s-2.94-6.534-6.534-6.534h-51.44c-3.594 0-6.534 2.941-6.534 6.534s2.941 6.534 6.534 6.534zM255.589-78.221c-18.379 0-33.279 14.899-33.279 33.279s14.899 33.279 33.279 33.279 33.279-14.899 33.279-33.279c0-18.38-14.899-33.279-33.279-33.279zM379.908 6.769h-247.815v347.792h247.815v-347.792z" />
<glyph unicode="&#xe62f;" glyph-name="icons_globe" d="M255.872 416c-141.314 0-255.872-114.557-255.872-255.871 0-141.313 114.557-255.871 255.871-255.871 141.313 0 255.871 114.558 255.871 255.871s-114.558 255.871-255.87 255.871zM442.743 289.72c-0.989 0.313-2.122 0.445-3.445 0.342-1.392-0.106-3.183 1.594-4.375 2.857-4.084 4.333-7.982 8.84-11.953 13.281-0.671 0.036-1.344 0.070-2.015 0.107 7.024-9.626 2.096-14.668-5.147-18.554-1.308 2.42-1.953 5.138-3.673 6.507-5.457 4.341-11.265 8.253-17.069 12.135-0.98 0.656-3.144 0.976-3.86 0.375-7.745-6.509-15.313-13.232-22.928-19.897 7.868-0.376 15.3-0.013 22.635 1.022 4.476 0.632 7.195-0.595 8.51-4.867 1.137-3.696 3.465-5.119 7.465-5.508 10.164-0.99 20.272-2.576 30.382-4.049 5.536-0.807 11.052-1.804 17.462-2.892 18.373-32.843 28.858-70.695 28.858-111.002 0-28.944-5.412-56.62-15.26-82.088-3.267-5.377-6.527-10.76-9.868-16.091-0.962-1.536-2.125-3.658-3.588-4.054-9.628-2.609-19.367-4.82-29.387-7.236-4.288 12.302-8.676 23.922-12.356 35.762-2.806 9.029-5.649 18.222-6.821 27.548-2.377 18.91-3.708 37.955-5.291 56.958-0.36 4.301-2.541 5.738-6.487 6.143-15.253 1.569-30.476 3.435-45.74 4.893-3.043 0.291-4.389 1.358-5.39 4.118-6.038 16.641-12.171 33.249-18.462 49.796-1.112 2.925-0.82 4.925 1.183 7.346 10.43 12.611 20.625 25.416 31.043 38.036 1.892 2.289 2.26 4.077 0.888 6.815-3.030 6.046-5.649 12.3-8.36 18.301 14.31 11.994 28.346 23.759 42.844 35.912 19.365-14.553 36.327-32.127 50.202-52.015zM267.778 386.988c15.266-0.787 30.131-3.079 44.456-6.728-3.408-0.162-6.877-0.814-10.491-1.912-9.228-2.802-16.941-6.39-21.675-15.155-0.682-1.264-2.849-2.572-4.212-2.457-3.303 0.275-6.537 1.378-9.823 2.152 0.599 8.269 1.16 16.050 1.745 24.1zM382.041 339.533c-13.349-8.849-14.61-8.976-25.093-3.073 2.197 7.943 4.366 15.785 6.589 23.814 4.232-2.276 8.38-4.686 12.447-7.215 2.034-4.542 4.067-9.083 6.057-13.526zM242.739 386.91c-2.957-1.922-5.363-4.944-7.030-9.462-0.056-0.153-0.172-0.325-0.309-0.401-1.898-1.032-3.716-2.681-5.723-2.958-8.512-1.178-16.492 0.898-24.2 4.539-1.834 0.866-4.599 1.61-6.19 0.849-13.614-6.503-27.057-13.365-41.124-20.406 5.868-4.555 11.217-8.707 16.748-13 6.971 4.984 13.698 9.891 20.549 14.616 1.444 0.997 3.328 1.851 5.030 1.892 8.18 0.195 16.371 0.169 24.553-0.001 1.225-0.026 3.091-0.936 3.53-1.934 3.548-8.072 6.826-16.262 10.323-24.751-12.381-8.064-24.675-15.688-36.558-23.904-16.319-11.284-34.418-20.104-47.711-35.636-4.695-5.486-8.986-10.328-8.089-18.088 0.297-2.575-0.381-5.265-0.665-8.497-9.748 4.293-18.863 8.423-28.096 12.271-1.635 0.681-4.031 0.831-5.599 0.139-5.758-2.535-11.379-5.412-16.896-8.443-1.116-0.613-2.436-2.685-2.17-3.691 1.987-7.51 4.351-14.921 6.698-22.697 7.099 2.838 13.656 5.458 20.409 8.157 8.475-13.142 16.744-25.968 25.064-38.87 7.963 3.586 15.468 6.822 22.832 10.349 2.933 1.405 5.27 1.216 8.091-0.378 7.41-4.186 14.796-8.519 22.569-11.937 29.026-12.758 52.087-33.833 76.199-53.725-9.702-24.82-18.579-49.646-35.073-71.225-12.331-16.132-25.744-31.824-33.924-50.798-1.088-2.521-1.387-5.913-0.713-8.562 2.042-8.026 4.741-15.885 7.595-25.14-9.649 6.14-18.228 11.516-26.676 17.091-0.89 0.587-1.216 2.304-1.454 3.562-4.745 25.097-9.339 50.224-14.2 75.299-1.471 7.587-1.871 15.355-6.698 22.227-8.612 12.263-16.519 25.024-24.459 37.743-1.288 2.063-1.959 5.056-1.664 7.466 1.45 11.833 3.367 23.607 5.014 35.416 0.356 2.544 1.263 5.018-2.070 7.030-21.416 12.911-42.162 27.025-66.311 34.781-2.382 0.766-4.799 3.152-6.047 5.42-5.429 9.863-10.534 19.936-15.984 30.476 35.587 70.777 106.993 120.436 190.429 125.181zM255.871-68.145c-11.107 0-22.021 0.811-32.703 2.348 0.465 0.444 0.917 0.955 1.359 1.551 4.558 6.157 9.665 11.909 14.577 17.8 2.874 3.449 5.816 6.839 9.214 10.827 4.347-11.13 8.494-21.353 12.288-31.705 0.101-0.274 0.21-0.513 0.318-0.756-1.682-0.037-3.364-0.065-5.053-0.065z" />
<glyph unicode="&#xe630;" glyph-name="icons_events-small" horiz-adv-x="2043" d="M0-89.387h238.139v29.765h-206.393v228.217h201.103v29.773h-201.103v181.251h206.393v29.765h-238.139zM664.557-89.387h238.139v29.765h-206.389v228.217h201.099v29.773h-201.099v181.251h206.389v29.765h-238.139zM1741.882 409.387h-289.738v-29.765h128.995v-469.009h31.751v469.009h128.992zM1985.957 148.095l-95.26 49.609c-40.353 19.186-89.962 41.019-89.962 93.274 0 52.26 40.353 95.252 93.937 95.252 46.962 0 78.717-23.152 101.207-58.873l22.491 18.52c-23.814 43.004-71.438 70.123-121.713 70.123-74.751 0-127.672-52.256-127.672-126.344 0-39.696 18.528-68.795 51.599-89.305l89.962-47.628c43.004-21.167 100.55-44.985 100.55-101.207 0-66.152-57.545-117.75-123.044-117.75-60.197 0-99.218 37.044-120.389 89.962l-27.789-12.565c23.157-64.171 77.401-107.167 146.862-107.167 80.698 0 156.114 62.182 156.114 144.869 0 44.989-19.186 75.412-56.892 99.231zM1411.245 409.387h-31.758v-435.268l-412.459 435.269h-6.27v-498.774h31.746v428.655l403.187-428.655h15.554zM597.64 409.387l-147.516-426.004h-1.32l-148.173 426.005h-31.759l173.515-498.774h11.568l175.435 498.774z" />
<glyph unicode="&#xe631;" glyph-name="icons_window" d="M351.329-1.351h-320.305v205.91h183.031v68.637h-213.536v-305.052h381.315v114.394h-30.505v-83.889zM103.474 250.316c6.318 0 11.439-5.122 11.439-11.439s-5.121-11.439-11.439-11.439c-6.317 0-11.439 5.122-11.439 11.439s5.121 11.439 11.439 11.439zM72.969 250.316c6.317 0 11.439-5.122 11.439-11.439s-5.122-11.439-11.439-11.439-11.439 5.122-11.439 11.439 5.121 11.439 11.439 11.439zM42.465 250.316c6.317 0 11.439-5.122 11.439-11.439s-5.121-11.439-11.439-11.439c-6.318 0-11.439 5.122-11.439 11.439s5.121 11.439 11.439 11.439zM244.561 341.832v-228.789h266.92v228.789h-266.92zM347.516 318.953c6.317 0 11.439-5.122 11.439-11.439s-5.121-11.439-11.439-11.439c-6.318 0-11.439 5.122-11.439 11.439s5.121 11.439 11.439 11.439zM317.010 318.953c6.317 0 11.439-5.122 11.439-11.439s-5.122-11.439-11.439-11.439-11.439 5.122-11.439 11.439c0 6.318 5.122 11.439 11.439 11.439zM286.505 318.953c6.317 0 11.439-5.122 11.439-11.439s-5.122-11.439-11.439-11.439-11.439 5.122-11.439 11.439c0 6.318 5.122 11.439 11.439 11.439zM481.058 143.617h-206.074v129.574h206.073v-129.574z" />
<glyph unicode="&#xe632;" glyph-name="icons_pro-small-bold" horiz-adv-x="923" d="M162.113 326.889c-26.040 22.132-56.614 23.964-85.701 23.942l-76.4-0.061 0.157-382.574 50.298 0.038-0.131 168.564 26.246 0.021c25.010 0.020 61.356 2.743 87.904 25.862 21.337 17.809 34.575 48.757 34.55 80.771-0.030 33.676-13.149 63.313-36.923 83.437zM77.48 185.569l-27.185-0.022-0.090 116.524 23.423 0.019c22.089 0.017 40.079-0.799 53.989-11.4 13.299-9.781 21.248-27.106 21.262-46.339 0.013-17.344-6.22-31.82-18.46-42.966-14.633-13.149-31.102-15.799-52.939-15.816zM463.108 242.945c0.551 37.292-14.255 68.446-41.532 87.605-28.298 20.502-60.594 20.477-89.091 20.454l-58.040-0.046 0.2-382.569 50.255 0.038-0.131 168.091 24.154 0.019 115.962-168 59.411 0.046-121.215 174.902c39.615 17.418 59.3 50.123 60.027 99.46zM324.638 302.26l11.854 0.038c16.447 0.013 33.596-0.492 46.935-6.81 21.75-9.649 29.515-32.896 29.53-51.428 0.015-18.639-7.197-35.157-20.178-45.641-13.947-12.135-32.298-13.133-53.101-13.149l-14.949-0.011-0.092 117.001zM724.563 355.993c-107.26-0.083-197.808-89.909-197.726-196.148s90.772-195.923 198.032-195.838c107.257 0.083 197.799 89.909 197.716 196.148s-90.766 195.923-198.023 195.838zM724.833 12.75c-80.076-0.063-147.777 67.317-147.839 147.134-0.063 79.823 67.533 147.307 147.609 147.37 80.072 0.063 147.773-67.317 147.836-147.139 0.061-79.817-67.533-147.302-147.605-147.365z" />
<glyph unicode="&#xe633;" glyph-name="icons_agenda" horiz-adv-x="4645" d="M4332.032 261.81l36.146-113.613h-72.301l36.155 113.613zM4399.159 33.108c8.119-23.605 1.477-29.514-16.972-29.514h-11.807v-88.531h274.454v88.531h-11.064c-18.44 0-26.559 5.899-34.678 29.514l-129.108 371.828h-191.070l-136.484-371.828c-8.853-23.605-11.807-29.514-30.247-29.514h-12.541v-88.531h190.336v88.531h-8.853c-19.183 0-25.082 5.899-17.706 29.514l10.33 33.935h113.613l11.798-33.935zM3820.097 3.604v312.801h33.935c50.164 0 71.559-41.311 71.559-141.649v-31.724c0-99.595-20.66-139.438-71.559-139.438h-33.935zM3589.184-84.926h261.903c184.437 0 271.491 77.466 271.491 243.454 0 172.63-79.677 246.408-264.115 246.408h-269.28v-88.53h18.44c15.495 0 19.917-5.899 19.917-29.514v-253.784c0-23.605-4.431-29.514-19.917-29.514h-18.44v-88.521zM3046.722 404.936v-88.531h25.825c15.495 0 19.917-5.899 19.917-29.513v-253.785c0-23.605-4.431-29.514-19.917-29.514h-25.825v-88.53h201.41v88.53h-25.825c-15.495 0-19.917 5.899-19.917 29.514v160.832l195.501-278.866h131.318v371.819c0 23.605 4.431 29.513 19.917 29.513h25.825v88.531h-201.4v-88.531h25.825c15.495 0 19.917-5.899 19.917-29.513v-94.43l-147.557 212.474h-225.015zM2571.557-84.926h447.075v151.236h-75.99l-16.229-28.036c-19.183-33.202-28.036-34.678-73.035-34.678h-54.595v114.356h12.541c22.128 0 29.514-11.064 29.514-39.834v-11.807h73.778v187.382h-73.778v-11.064c0-28.77-7.376-36.889-29.514-36.889h-12.541v110.668h50.164c44.999 0 56.073-4.422 73.778-34.678l16.229-28.036h75.99v151.245h-443.387v-88.53h18.44c15.495 0 19.917-5.899 19.917-29.514v-253.784c0-23.605-4.431-29.514-19.917-29.514h-18.44v-88.521zM2468.125-84.926h66.393v255.995h-237.555v-88.531h67.87v-13.275c0-33.202-18.44-50.908-52.385-50.908-50.164 0-65.66 30.247-65.66 132.053v23.605c0 87.788 26.559 119.512 72.302 119.512 47.954 0 64.925-31.724 73.035-78.935h142.383v190.346h-99.595l-24.348-53.852c-22.852 42.045-61.219 64.916-136.465 64.916-142.383 0-227.225-95.906-227.225-256.739 0-164.52 81.155-255.261 227.959-255.261 73.778 0 126.897 24.348 151.236 80.412l42.055-69.338zM1755.765 261.81l36.146-113.613h-72.302l36.156 113.613zM1822.902 33.108c8.119-23.605 1.477-29.514-16.972-29.514h-11.807v-88.531h274.445v88.531h-11.064c-18.44 0-26.559 5.899-34.678 29.514l-129.099 371.828h-191.079l-136.484-371.828c-8.853-23.605-11.807-29.514-30.247-29.514h-12.541v-88.531h190.336v88.531h-8.853c-19.183 0-25.082 5.899-17.706 29.514l10.33 33.935h113.612l11.807-33.935zM1043.22-84.926h429.192v145.188h-72.952l-15.579-26.912c-18.412-31.873-26.912-33.285-70.119-33.285h-52.412v109.767h12.040c21.245 0 28.333-10.628 28.333-38.245v-11.334h60.986l9.838 179.895h-70.824v-10.627c0-27.618-7.079-35.412-28.333-35.412h-12.040v106.246h48.158c43.206 0 53.824-4.245 70.824-33.285l15.579-26.912h72.952v145.179h-425.652v-84.991h17.706c14.873 0 19.118-5.666 19.118-28.333v-243.631c0-22.667-4.245-28.333-19.118-28.333h-17.706v-84.973zM473.95-84.926h254.258v84.991h-14.167c-14.873 0-19.118 5.666-19.118 28.333v86.403h97.736v-86.403c0-22.667-4.245-28.333-19.118-28.333h-14.167v-84.991h254.258v84.991h-17.706c-14.873 0-19.118 5.666-19.118 28.333v243.622c0 22.667 4.245 28.334 19.118 28.334h17.706v84.982h-254.258v-84.991h14.167c14.873 0 19.118-5.666 19.118-28.333v-79.325h-97.746v79.325c0 22.667 4.245 28.333 19.118 28.333h14.167v84.991h-254.258v-84.991h17.706c14.873 0 19.118-5.666 19.118-28.333v-243.631c0-22.667-4.245-28.333-19.118-28.333h-17.706v-84.973zM85.697-84.926h264.877v84.991h-24.785c-14.873 0-19.118 5.666-19.118 28.333v271.259c36.824-1.412 50.285-10.627 57.363-39.657l6.373-26.912h72.952v152.249h-443.358v-152.267h72.952l6.373 26.912c6.373 26.912 18.412 36.824 50.285 39.657v-271.259c0-22.667-4.245-28.333-19.118-28.333h-24.794v-84.973z" />
<glyph unicode="&#xe634;" glyph-name="icons_google-plus" d="M245.253 391.751c4.238-2.62 8.97-6.438 14.246-11.473 5.062-5.249 10.017-11.727 14.873-19.36 4.654-7.216 8.774-15.724 12.378-25.583 2.957-9.829 4.425-21.32 4.425-34.442-0.384-24.048-5.704-43.29-15.938-57.733-4.996-6.994-10.305-13.446-15.913-19.351-6.224-5.884-12.821-11.916-19.819-18.035-4.019-4.151-7.712-8.853-11.114-14.111-4.003-5.468-6.010-11.792-6.010-19.010 0-7.038 2.056-12.812 6.167-17.395 3.482-4.383 6.881-8.215 10.174-11.49l22.819-18.69c14.168-11.622 26.599-24.364 37.281-38.365 10.060-14.228 15.3-32.805 15.746-55.752 0-32.591-14.408-61.438-43.181-86.619-29.805-26.030-72.881-39.459-129.144-40.341-47.104 0.437-82.263 10.485-105.499 30.101-23.417 18.355-35.157 40.282-35.157 65.817 0 12.426 3.796 26.315 11.46 41.593 7.379 15.26 20.781 28.689 40.184 40.255 21.757 12.418 44.637 20.738 68.612 24.884 23.746 3.477 43.447 5.455 59.142 5.888-4.851 6.387-9.169 13.191-12.965 20.449-4.425 7.033-6.622 15.51-6.622 25.378 0 5.935 0.832 10.914 2.511 14.85 1.478 4.196 2.861 8.010 4.112 11.543-7.629-0.867-14.85-1.308-21.594-1.308-35.81 0.441-63.088 11.709-81.861 33.78-19.666 20.579-29.499 44.514-29.499 71.831 0 33.041 13.909 62.973 41.772 89.882 19.106 15.724 38.974 25.986 59.57 30.829 20.405 4.155 39.525 6.228 57.353 6.228h134.471l-41.528-24.249h-41.452zM271.212 4.677c0 17.077-5.56 31.931-16.683 44.606-11.788 12.025-30.19 26.787-55.245 44.304-4.299 0.442-9.321 0.648-15.099 0.648-3.42 0.42-12.208 0-26.337-1.303-13.905-1.977-28.16-5.139-42.725-9.518-3.424-1.317-8.227-3.294-14.425-5.918-6.216-2.838-12.528-6.889-18.965-12.139-6.216-5.463-11.456-12.239-15.725-20.339-4.947-8.539-7.379-18.822-7.379-30.842 0-23.624 10.672-43.089 32.083-58.394 20.361-15.305 48.175-23.178 83.511-23.629 31.69 0.45 55.896 7.449 72.57 21.005 16.288 13.359 24.419 30.514 24.419 51.517zM177.469 201.786c17.707 0.661 32.451 7.033 44.247 19.088 5.704 8.538 9.362 17.299 10.98 26.288 0.971 8.998 1.475 16.529 1.475 22.683 0 26.498-6.784 53.246-20.344 80.181-6.373 12.916-14.74 23.45-25.115 31.55-10.612 7.641-22.794 11.709-36.559 12.151-18.227-0.442-33.37-7.786-45.459-22.023-10.187-14.901-15.064-31.553-14.596-49.964 0-24.316 7.090-49.598 21.328-75.911 6.907-12.256 15.768-22.662 26.69-31.204 10.892-8.57 23.339-12.839 37.355-12.839zM510.413 342.556h-70.553v70.571h-34.188v-70.571h-70.544v-34.188h70.544v-70.545h34.188v70.545h70.553v34.188z" />
<glyph unicode="&#xe635;" glyph-name="add-favorite" d="M256.026 352.068l-67.298-150.423-157.030-20.731 115.438-113.693-29.751-163.221 138.643 80.148 138.645-80.148-29.752 163.221 115.44 113.693-157.034 20.73-67.302 150.423zM512 351.982v-32.042h-64.017v-64.018h-31.976v64.018h-64.017v32.042h64.017v64.018h31.976v-64.018h64.017z" />
<glyph unicode="&#xe636;" glyph-name="remove-favorite" d="M255.996 352.068l-67.299-150.423-157.030-20.731 115.438-113.693-29.751-163.221 138.643 80.148 138.647-80.148-29.752 163.221 115.436 113.693-157.034 20.731-67.298 150.422zM351.942 351.978h160.058v-32.015h-160.058v32.015z" />
<glyph unicode="&#xe637;" glyph-name="icons_filter" d="M0 416.352h512v-73.12h-512v73.12zM73.152 270.080h365.728v-73.152h-365.728v73.152zM146.272 123.776h219.424v-73.12h-219.424v73.12zM219.424-22.496h73.152v-73.152h-73.152v73.152z" />
<glyph unicode="&#xe638;" glyph-name="icons_star-solid" d="M499.2 214.4l-169.6 22.4-73.6 156.8-73.6-156.8-169.6-22.4 124.8-118.4-32-169.6 150.4 83.2 150.4-83.2-32 169.6z" />
<glyph unicode="&#xe639;" glyph-name="icons_bullet-circle" d="M256 297.312c-75.84 0-137.312-61.472-137.312-137.312s61.472-137.312 137.312-137.312 137.312 61.472 137.312 137.312c0 75.84-61.472 137.312-137.312 137.312zM256 86.080c-40.832 0-73.92 33.088-73.92 73.92s33.088 73.92 73.92 73.92 73.92-33.088 73.92-73.92c0-40.832-33.088-73.92-73.92-73.92z" />
<glyph unicode="&#xe640;" glyph-name="icons_bullet-star" d="M499.2 214.848l-170.24 21.504-72.96 155.968-72.96-155.968-170.24-21.504 125.152-117.888-32.256-169.248 150.304 83.104 150.304-83.104-32.256 169.248 125.152 117.888zM327.904 33.248l-71.872 41.568-71.872-41.568 15.424 84.64-59.84 58.944 81.408 10.752 34.88 77.984 34.88-77.984 81.408-10.752-59.84-58.944 15.424-84.64z" />
<glyph unicode="&#xe641;" glyph-name="florida-logo" horiz-adv-x="4903" d="M72.386 110.566v-195.973h-72.386v483.752h82.98c40.607 0 70.621-3.531 91.807-8.828s38.841-15.889 54.731-31.779c28.248-26.483 42.373-61.793 42.373-102.4 0-44.138-14.124-79.448-44.138-105.931s-70.621-38.841-120.055-38.841c0 0-35.31 0-35.31 0zM72.386 177.655h26.483c67.090 0 100.635 26.483 100.635 77.683 0 49.434-35.31 74.151-104.165 74.151h-22.951v-151.834zM294.841 158.235c0 68.855 24.717 127.117 74.151 176.552s109.462 74.151 180.083 74.151c68.855 0 128.883-24.717 178.317-74.151s74.151-109.462 74.151-178.317-24.717-128.883-74.151-176.552c-49.434-49.434-111.227-72.386-181.849-72.386-61.793 0-118.289 21.186-167.724 65.324-54.731 44.138-82.979 107.697-82.979 185.379zM368.993 156.469c0-52.965 17.655-97.104 54.731-132.414 35.31-35.311 77.683-51.2 123.586-51.2 51.2 0 93.572 17.655 128.883 52.966s52.966 79.448 52.966 130.649-17.655 95.338-51.2 130.648-75.917 52.966-127.117 52.966-93.572-17.655-127.117-52.966c-37.076-37.076-54.731-79.448-54.731-130.648zM914.538 398.345v-414.897h143.007v-68.855h-215.393v483.752h72.386zM1182.897 398.345v-483.752h-72.386v483.752h72.386zM1419.476 329.49v-414.896h-72.386v414.896h-111.227v68.855h294.841v-68.855h-111.227zM1654.29 398.345v-483.752h-72.386v483.752h72.386zM2081.545 371.862v-86.51c-42.372 35.31-86.511 52.965-130.649 52.965-49.435 0-91.807-17.655-125.351-52.965s-51.2-79.448-51.2-130.649 17.655-93.573 51.2-128.883 75.917-52.966 125.351-52.966c26.483 0 47.669 3.531 65.324 12.359 10.593 3.531 21.186 10.593 31.779 17.655s22.952 15.889 33.545 26.483v-88.276c-42.372-22.952-86.511-35.31-132.414-35.31-68.855 0-128.883 24.717-176.552 72.386-49.435 49.435-72.386 107.697-72.386 176.552 0 61.793 21.186 116.524 61.793 164.193 49.435 58.262 114.758 88.276 194.207 88.276 44.138 0 84.745-12.358 125.352-35.31zM2093.903 158.235c0 68.855 24.717 127.117 74.151 176.552s109.462 74.151 180.083 74.151c68.855 0 128.883-24.717 178.317-74.151s74.151-109.462 74.151-178.317-24.717-128.883-74.151-176.552c-49.434-49.434-109.462-72.386-181.849-72.386-61.793 0-118.289 21.186-167.724 65.324-56.497 44.138-82.979 107.697-82.979 185.379zM2166.289 156.469c0-52.965 17.655-97.104 54.731-132.414 35.311-35.311 77.683-51.2 123.586-51.2 51.2 0 93.573 17.655 128.883 52.966s52.965 79.448 52.965 130.649-17.655 95.338-51.2 130.648-77.683 52.966-127.117 52.966c-51.2 0-93.573-17.655-127.117-52.966-37.076-37.076-54.731-79.448-54.731-130.648zM2685.352 370.097v-173.021h231.283v-28.249h-231.283v-247.173h-31.78v476.69h268.358v-28.249h-236.579zM3015.503-51.862h238.345v-28.249h-270.124v478.455h31.78v-450.207zM3709.352 161.766c0-134.18-112.993-243.642-247.173-243.642s-247.173 111.228-247.173 243.642c0 134.179 112.993 243.641 247.173 243.641 134.18 1.766 247.173-109.462 247.173-243.641zM3246.786 161.766c0-116.524 97.104-215.393 217.159-215.393 118.289 0 217.159 98.869 217.159 215.393s-98.869 215.393-217.159 215.393c-120.055 1.766-217.159-97.103-217.159-215.393zM4002.427-74.814h-35.311l-155.365 225.986h-15.89v-225.986h-30.014v474.924h60.028c38.841 0 75.917 0 107.697-24.717 33.545-24.717 47.669-61.793 47.669-102.4 0-82.979-58.262-125.351-135.945-123.586l157.131-224.221zM3836.469 177.655c30.014 0 60.028 1.766 82.979 22.952 22.952 17.655 33.545 45.904 33.545 75.917 0 35.311-15.89 70.621-51.2 86.511-24.717 12.358-58.262 10.593-84.745 10.593h-19.421v-194.207h38.841v-1.766zM4088.938-74.814h-30.014v474.924h30.014v-474.924zM4191.338 400.111h86.511c68.855 0 123.586-10.593 176.551-60.027 49.435-45.904 75.917-111.227 75.917-178.317 0-65.324-24.717-128.883-72.386-174.786-52.966-51.2-107.697-63.558-178.317-63.558h-86.511l-1.766 476.69zM4276.083-46.565c61.793 0 114.758 12.358 158.896 58.262 40.607 40.607 63.559 95.338 63.559 151.835 0 60.028-24.717 116.524-68.855 158.896-45.904 40.607-95.338 51.2-153.6 51.2h-54.731v-418.428l54.731-1.765zM4599.172 80.552l-63.559-157.131h-31.779l199.503 492.58 199.503-490.814h-31.779l-63.559 157.131h-208.331v-1.765zM4703.338 338.317l-93.573-229.517h185.38l-91.807 229.517z" />
<glyph unicode="&#xe642;" glyph-name="illinois-logo" horiz-adv-x="4864" d="M72.386 119.393v-197.738h-72.386v485.517h82.98c40.607 0 70.621-3.531 91.807-8.828s38.841-15.889 54.731-31.779c28.248-26.483 42.373-61.793 42.373-102.4 0-44.138-14.124-79.448-44.138-105.931s-70.621-38.841-120.055-38.841h-35.31zM72.386 186.483h26.483c67.090 0 100.635 26.483 100.635 77.683 0 49.434-35.31 74.151-104.165 74.151h-22.951v-151.834zM294.841 167.062c0 68.855 24.717 127.117 74.151 176.552 51.2 47.669 111.228 72.386 180.083 72.386s128.883-24.717 178.317-74.151c49.434-49.435 74.151-109.462 74.151-178.317s-24.717-128.883-74.151-176.552c-49.434-49.434-111.227-72.386-181.849-72.386-61.793 0-118.289 21.186-167.724 65.324-54.731 45.904-82.979 109.462-82.979 187.145zM368.993 165.297c0-52.966 17.655-97.104 54.731-132.414 35.31-35.31 77.683-51.2 123.586-51.2 51.2 0 93.572 17.655 128.883 52.966s52.966 79.448 52.966 130.648c0 51.2-17.655 95.338-51.2 130.649s-75.917 52.965-127.117 52.965c-51.2 0-93.572-17.655-127.117-52.965-37.076-37.076-54.731-79.449-54.731-130.649zM914.538 407.173v-414.896h143.007v-70.62h-215.393v485.517h72.386zM1182.897 407.173v-485.517h-72.386v485.517h72.386zM1419.476 338.317v-416.662h-72.386v416.662h-111.227v68.855h294.841v-68.855h-111.227zM1654.29 407.173v-485.517h-72.386v485.517h72.386zM2081.545 380.69v-86.51c-42.372 35.31-86.511 52.965-130.649 52.965-49.435 0-91.807-17.655-125.351-52.965s-51.2-79.448-51.2-130.649c0-51.2 17.655-93.573 51.2-128.883s75.917-52.966 125.351-52.966c26.483 0 47.669 3.531 65.324 12.358 10.593 3.531 21.186 10.593 31.779 17.655s22.952 15.889 33.545 26.483v-88.276c-42.372-22.952-86.511-35.31-132.414-35.31-68.855 0-128.883 24.717-176.552 72.386-49.435 49.435-72.386 107.697-72.386 176.552 0 61.793 21.186 116.524 61.793 164.193 49.435 58.262 114.758 88.276 194.207 88.276 44.138 0 84.745-12.358 125.352-35.31zM2093.903 167.062c0 68.855 24.717 127.117 74.151 176.552 49.434 47.669 109.462 72.386 180.083 72.386 68.855 0 128.883-24.717 178.317-74.151s74.151-109.462 74.151-178.317c0-68.855-24.717-128.883-74.151-176.552-49.434-49.434-109.462-72.386-181.849-72.386-61.793 0-118.289 21.186-167.724 65.324-56.497 45.904-82.979 109.462-82.979 187.145zM2166.289 165.297c0-52.966 17.655-97.104 54.731-132.414 35.311-35.31 77.683-51.2 123.586-51.2 51.2 0 93.573 17.655 128.883 52.966s52.965 79.448 52.965 130.648c0 51.2-17.655 95.338-51.2 130.649s-77.683 52.965-127.117 52.965c-51.2 0-93.573-17.655-127.117-52.965-37.076-37.076-54.731-79.449-54.731-130.649zM2678.289-78.345h-30.014v485.517h30.014v-485.517zM3439.227-78.345h-31.78v483.752h31.78v-483.752zM4447.338 163.531c0-137.71-116.524-250.704-252.469-250.704s-252.469 112.993-252.469 250.704 114.758 250.704 252.469 250.704c137.711 0 252.469-112.993 252.469-250.704zM3974.18 163.531c0-120.055 100.635-220.69 222.455-220.69 120.055 0 222.455 100.635 222.455 220.69s-100.635 220.689-222.455 220.689c-121.82 1.766-222.455-98.869-222.455-220.689zM4523.255-78.345h-31.779v485.517h31.779v-485.517zM4818.096 327.724c-21.186 35.31-52.966 58.262-98.869 58.262-52.966 0-91.807-42.373-91.807-93.573s47.669-72.386 88.276-91.807l93.573-47.669c37.076-22.952 54.731-52.966 54.731-97.103 0-81.214-74.151-141.242-151.834-141.242-67.090 0-120.055 42.373-143.007 104.166l26.483 12.358c21.186-51.2 58.262-88.276 118.289-88.276 63.559 0 120.055 51.2 120.055 114.758 0 54.731-56.497 77.683-98.869 98.869l-88.276 45.904c-31.779 19.421-51.2 47.669-51.2 86.511 0 72.386 51.2 123.586 125.351 123.586 49.435 0 95.338-26.483 118.289-68.855l-21.186-15.889zM3900.028-83.641l-374.289 414.896v-413.131h-31.78v489.048l374.289-411.365v411.365h31.78v-490.814zM2771.862-50.096h241.876v-28.248h-273.655v483.751h31.78v-455.503zM3107.311-50.096h241.876v-28.248h-273.655v485.517h31.78v-457.269z" />
<glyph unicode="&#xe643;" glyph-name="massachusetts-logo" horiz-adv-x="7400" d="M72.386 119.393v-197.738h-72.386v485.517h82.98c40.607 0 70.621-3.531 91.807-8.828s38.841-15.889 54.731-31.779c28.248-26.483 42.373-61.793 42.373-102.4 0-44.138-14.124-79.448-44.138-105.931s-70.621-38.841-120.055-38.841h-35.31zM72.386 186.483h26.483c67.090 0 100.635 26.483 100.635 77.683 0 49.434-35.31 74.151-104.165 74.151h-22.951v-151.834zM294.841 167.062c0 68.855 24.717 127.117 74.151 176.552 51.2 47.669 111.228 72.386 180.083 72.386s128.883-24.717 178.317-74.151c49.434-49.435 74.151-109.462 74.151-178.317s-24.717-128.883-74.151-176.552c-49.434-49.434-111.227-72.386-181.849-72.386-61.793 0-118.289 21.186-167.724 65.324-54.731 45.904-82.979 109.462-82.979 187.145zM368.993 165.297c0-52.966 17.655-97.104 54.731-132.414 35.31-35.31 77.683-51.2 123.586-51.2 51.2 0 93.572 17.655 128.883 52.966s52.966 79.448 52.966 130.648c0 51.2-17.655 95.338-51.2 130.649s-75.917 52.965-127.117 52.965c-51.2 0-93.572-17.655-127.117-52.965-37.076-37.076-54.731-79.449-54.731-130.649zM914.538 407.173v-414.896h143.007v-70.62h-215.393v485.517h72.386zM1182.897 407.173v-485.517h-72.386v485.517h72.386zM1419.476 338.317v-416.662h-72.386v416.662h-111.227v68.855h294.841v-68.855h-111.227zM1654.29 407.173v-485.517h-72.386v485.517h72.386zM2081.545 380.69v-86.51c-42.372 35.31-86.511 52.965-130.649 52.965-49.435 0-91.807-17.655-125.351-52.965s-51.2-79.448-51.2-130.649c0-51.2 17.655-93.573 51.2-128.883s75.917-52.966 125.351-52.966c26.483 0 47.669 3.531 65.324 12.358 10.593 3.531 21.186 10.593 31.779 17.655s22.952 15.889 33.545 26.483v-88.276c-42.372-22.952-86.511-35.31-132.414-35.31-68.855 0-128.883 24.717-176.552 72.386-49.435 49.435-72.386 107.697-72.386 176.552 0 61.793 21.186 116.524 61.793 164.193 49.435 58.262 114.758 88.276 194.207 88.276 44.138 0 84.745-12.358 125.352-35.31zM2093.903 167.062c0 68.855 24.717 127.117 74.151 176.552 49.434 47.669 109.462 72.386 180.083 72.386 68.855 0 128.883-24.717 178.317-74.151s74.151-109.462 74.151-178.317c0-68.855-24.717-128.883-74.151-176.552-49.434-49.434-109.462-72.386-181.849-72.386-61.793 0-118.289 21.186-167.724 65.324-56.497 45.904-82.979 109.462-82.979 187.145zM2166.289 165.297c0-52.966 17.655-97.104 54.731-132.414 35.311-35.31 77.683-51.2 123.586-51.2 51.2 0 93.573 17.655 128.883 52.966s52.965 79.448 52.965 130.648c0 51.2-17.655 95.338-51.2 130.649s-77.683 52.965-127.117 52.965c-51.2 0-93.573-17.655-127.117-52.965-37.076-37.076-54.731-79.449-54.731-130.649zM3306.814 77.021l-63.559-155.365h-30.014l197.738 489.048 197.738-489.048h-30.014l-63.559 155.365h-208.331zM3410.979 334.786l-91.807-229.517h185.38l-93.573 229.517zM3875.311 327.724c-21.186 35.31-52.965 58.262-98.869 58.262-52.965 0-91.807-42.373-91.807-93.573s47.669-72.386 88.276-91.807l93.573-47.669c37.076-22.952 54.731-52.966 54.731-97.103 0-81.214-74.151-141.242-151.834-141.242-67.090 0-120.055 42.373-143.007 104.166l26.483 12.358c21.186-51.2 58.262-88.276 118.289-88.276 63.559 0 120.055 51.2 120.055 114.758 0 54.731-56.497 77.683-98.869 98.869l-88.276 45.904c-31.78 19.421-51.2 47.669-51.2 86.511 0 72.386 51.2 123.586 125.352 123.586 49.434 0 95.338-26.483 118.289-68.855l-21.186-15.889zM4226.649 327.724c-21.186 35.31-52.966 58.262-98.869 58.262-52.965 0-91.807-42.373-91.807-93.573s47.669-72.386 88.276-91.807l93.573-47.669c37.076-22.952 54.731-52.966 54.731-97.103 0-81.214-74.151-141.242-151.834-141.242-67.090 0-120.055 42.373-143.007 104.166l26.483 12.358c21.186-51.2 58.262-88.276 118.29-88.276 63.559 0 120.055 51.2 120.055 114.758 0 54.731-56.497 77.683-98.869 98.869l-88.276 45.904c-31.78 19.421-51.2 47.669-51.2 86.511 0 72.386 51.2 123.586 125.351 123.586 49.435 0 95.338-26.483 118.289-68.855l-21.186-15.889zM6196.966 327.724c-21.186 35.31-52.966 58.262-98.869 58.262-52.966 0-91.807-42.373-91.807-93.573s47.669-72.386 88.276-91.807l93.573-47.669c37.076-22.952 54.731-52.966 54.731-97.103 0-81.214-74.151-141.242-151.834-141.242-67.090 0-120.055 42.373-143.007 104.166l26.483 12.358c21.186-51.2 58.262-88.276 118.289-88.276 63.559 0 120.055 51.2 120.055 114.758 0 54.731-56.497 77.683-98.869 98.869l-88.276 45.904c-31.779 19.421-51.2 47.669-51.2 86.511 0 72.386 51.2 123.586 125.351 123.586 49.435 0 95.338-26.483 118.289-68.855l-21.186-15.889zM7353.38 327.724c-21.186 35.31-52.966 58.262-98.869 58.262-52.966 0-91.807-42.373-91.807-93.573s47.669-72.386 88.276-91.807l93.573-49.434c37.076-22.952 54.731-52.966 54.731-97.104 0-81.214-74.151-141.241-151.834-141.241-67.090 0-120.055 42.373-143.007 104.166l26.483 12.358c21.186-51.2 58.262-88.276 118.289-88.276 63.559 0 120.055 51.2 120.055 114.758 0 54.731-56.497 77.683-98.869 98.869l-88.276 45.904c-31.779 19.421-51.2 47.669-51.2 86.51 0 72.386 51.2 123.586 125.351 123.586 49.435 0 95.338-26.483 118.289-68.855l-21.186-14.124zM4373.186 77.021l-63.559-155.365h-30.014l197.738 489.048 197.738-489.048h-31.779l-63.559 155.365h-206.565zM4477.351 334.786l-93.573-227.752h185.38l-91.807 227.752zM5070.565 308.304c-37.076 45.904-102.4 75.917-162.427 75.917-121.82 0-220.69-104.165-220.69-224.22 0-56.496 24.717-109.462 65.324-150.069 40.607-38.841 98.869-67.089 155.365-67.089s127.117 30.014 162.427 74.151v-42.372c-45.904-38.841-102.4-60.028-162.427-60.028-135.945 0-254.234 112.993-254.234 248.938 0 137.71 116.524 250.703 254.234 250.703 58.262 0 118.289-22.952 160.662-63.559v-42.372zM5473.104 200.607v206.565h30.014v-485.517h-30.014v250.704h-294.841v-250.704h-30.014v485.517h30.014v-206.566h294.842zM5872.11 405.407h30.014v-301.904c0-49.435 0-91.807-33.545-132.414-33.545-37.076-82.98-56.497-130.649-56.497s-98.869 19.421-130.649 56.496c-33.545 40.607-33.545 82.98-33.545 132.414v301.904h30.014v-293.076c0-44.138 0-90.041 24.717-121.82 22.952-30.014 70.62-47.669 107.697-47.669s84.745 15.889 107.697 47.669c24.717 31.779 24.717 77.683 24.717 121.82v293.076zM6331.145 377.159v-176.551h195.972v-28.249h-195.972v-222.455h201.269v-28.248h-231.283v485.517h231.283v-28.248h-201.269zM6716.028-78.345h-30.014v455.504h-107.697v30.014h245.407v-28.248h-107.697v-457.269zM7005.573-78.345h-31.779v455.504h-107.697v30.014h245.407v-28.248h-107.697v-457.269zM3073.765 407.173l-173.021-404.303-173.021 404.303-100.635-485.517-1.765-1.765h33.545l79.448 379.586 162.428-379.586 162.427 379.586 79.448-377.821v-1.765h33.545z" />
<glyph unicode="&#xe644;" glyph-name="nj-logo" horiz-adv-x="6079" d="M4572.69 377.159v-174.786h194.207v-28.249h-194.207v-220.69h199.503v-28.248h-229.517v480.221h229.517v-28.249h-199.503zM5086.455-76.579h-35.31l-157.131 227.751h-15.89v-227.751h-30.014v481.986h60.028c38.842 0 77.683 0 109.462-24.717 35.31-24.717 49.435-61.793 49.435-104.165 0-82.98-58.262-127.117-137.711-125.351l157.131-227.752zM4916.966 181.186c30.014 0 60.028 1.766 84.745 22.952 22.952 17.655 33.545 47.669 33.545 75.917 0 35.31-15.89 72.386-51.2 86.51-24.717 12.358-58.262 10.593-86.511 10.593h-19.421v-195.972h38.842zM5345.986 325.959c-21.186 35.31-52.966 56.497-97.104 56.497-51.2 0-90.042-42.373-90.042-91.807s47.669-72.386 86.511-90.042l91.807-47.669c37.076-22.952 54.731-52.966 54.731-95.338 0-79.448-72.386-139.476-150.069-139.476-67.090 0-120.055 42.373-141.242 104.166l26.483 12.358c21.186-51.2 58.262-86.51 116.524-86.51 63.559 0 118.289 49.435 118.289 112.993 0 54.731-54.731 77.683-97.104 97.103l-86.511 45.904c-31.779 19.421-49.435 47.669-49.435 86.511 0 72.386 51.2 121.82 123.586 121.82 49.435 0 95.338-26.483 118.289-67.089l-24.717-19.421zM5483.697 377.159v-174.786h194.207v-28.249h-194.207v-220.69h199.503v-28.248h-229.517v480.221h229.517v-28.249h-199.503zM5727.338 405.407h33.545l141.242-243.642 141.242 243.642h33.545l-160.662-275.421v-206.565h-30.014v206.565l-158.896 275.421zM4463.227 45.241v363.697h-31.779v-363.697c0-54.731-44.138-100.635-100.635-100.635s-100.635 45.904-100.635 100.635h-31.779c0-72.386 60.028-132.414 132.414-132.414s132.414 60.028 132.414 132.414zM72.386 119.393v-197.738h-72.386v485.517h82.98c40.607 0 70.621-3.531 91.807-8.828s38.841-15.889 54.731-31.779c28.248-26.483 42.373-61.793 42.373-102.4 0-44.138-14.124-79.448-44.138-105.931s-70.621-38.841-120.055-38.841c0 0-35.31 0-35.31 0zM72.386 186.483h26.483c67.090 0 100.635 26.483 100.635 77.683 0 49.434-35.31 74.151-104.165 74.151h-22.951v-151.834zM294.841 167.062c0 68.855 24.717 127.117 74.151 176.552 51.2 47.669 111.228 72.386 180.083 72.386s128.883-24.717 178.317-74.151 74.151-109.462 74.151-178.317-24.717-128.883-74.151-176.552c-49.434-49.434-111.227-72.386-181.849-72.386-61.793 0-118.289 21.186-167.724 65.324-54.731 45.904-82.979 109.462-82.979 187.145zM368.993 165.297c0-52.966 17.655-97.104 54.731-132.414 35.31-35.31 77.683-51.2 123.586-51.2 51.2 0 93.572 17.655 128.883 52.966s52.966 79.448 52.966 130.648-17.655 95.338-51.2 130.649-75.917 52.965-127.117 52.965-93.572-17.655-127.117-52.965c-37.076-37.076-54.731-79.449-54.731-130.649zM914.538 407.173v-414.896h143.007v-70.62h-215.393v485.517h72.386zM1182.897 407.173v-485.517h-72.386v485.517h72.386zM1419.476 338.317v-416.662h-72.386v416.662h-111.227v68.855h294.841v-68.855h-111.227zM1654.29 407.173v-485.517h-72.386v485.517h72.386zM2081.545 380.69v-86.51c-42.372 35.31-86.511 52.965-130.649 52.965-49.435 0-91.807-17.655-125.351-52.965s-51.2-79.448-51.2-130.649 17.655-93.573 51.2-128.883 75.917-52.966 125.351-52.966c26.483 0 47.669 3.531 65.324 12.358 10.593 3.531 21.186 10.593 31.779 17.655s22.952 15.889 33.545 26.483v-88.276c-42.372-22.952-86.511-35.31-132.414-35.31-68.855 0-128.883 24.717-176.552 72.386-49.435 49.435-72.386 107.697-72.386 176.552 0 61.793 21.186 116.524 61.793 164.193 49.435 58.262 114.758 88.276 194.207 88.276 44.138 0 84.745-12.358 125.352-35.31zM2093.903 167.062c0 68.855 24.717 127.117 74.151 176.552 49.434 47.669 109.462 72.386 180.083 72.386 68.855 0 128.883-24.717 178.317-74.151s74.151-109.462 74.151-178.317-24.717-128.883-74.151-176.552c-49.434-49.434-109.462-72.386-181.849-72.386-61.793 0-118.289 21.186-167.724 65.324-56.497 45.904-82.979 109.462-82.979 187.145zM2166.289 165.297c0-52.966 17.655-97.104 54.731-132.414 35.311-35.31 77.683-51.2 123.586-51.2 51.2 0 93.573 17.655 128.883 52.966s52.965 79.448 52.965 130.648-17.655 95.338-51.2 130.649-77.683 52.965-127.117 52.965c-51.2 0-93.573-17.655-127.117-52.965-37.076-37.076-54.731-79.449-54.731-130.649zM3072-80.111l-370.758 413.131v-409.6h-30.014v483.752l370.758-407.835v407.835h30.014v-487.283zM3158.51 377.159v-176.551h194.207v-28.249h-194.207v-222.455h199.503v-28.248h-231.283v485.517h231.283v-28.248h-199.503v-1.765zM3576.938 4.635l181.849 402.538 181.849-402.538 134.18 400.773h30.014l-164.193-483.752-185.38 409.6-183.614-409.6-162.428 485.517h30.014l137.711-402.538z" />
<glyph unicode="&#xe645;" glyph-name="ny-logo" horiz-adv-x="5675" d="M72.386 114.096v-195.972h-72.386v483.752h82.98c40.607 0 70.621-3.531 91.807-8.828s38.841-15.889 54.731-31.779c28.248-26.483 42.373-61.793 42.373-102.4 0-44.138-14.124-79.448-44.138-105.931s-70.621-38.841-120.055-38.841h-35.31zM72.386 181.186h26.483c67.090 0 100.635 26.483 100.635 77.683 0 49.435-35.31 74.152-104.165 74.152h-22.951v-151.835zM294.841 161.766c0 68.855 24.717 127.117 74.151 176.551s109.462 74.152 180.083 74.152c68.855 0 128.883-24.717 178.317-74.152s74.151-109.462 74.151-178.317-24.717-128.883-74.151-176.552c-49.434-49.434-111.227-72.386-181.849-72.386-61.793 0-118.289 21.186-167.724 65.324-54.731 44.138-82.979 107.697-82.979 185.379zM368.993 160c0-52.966 17.655-97.103 54.731-132.414 35.31-35.31 77.683-51.2 123.586-51.2 51.2 0 93.572 17.655 128.883 52.966s52.966 79.448 52.966 130.648-17.655 95.338-51.2 130.649-75.917 52.965-127.117 52.965-93.572-17.655-127.117-52.965c-37.076-37.076-54.731-79.449-54.731-130.649zM914.538 401.876v-414.897h143.007v-68.855h-215.393v483.751h72.386zM1182.897 401.876v-483.752h-72.386v483.751h72.386zM1419.476 333.021v-414.897h-72.386v414.897h-111.227v68.855h294.841v-68.855c0 0-111.227 0-111.227 0zM1654.29 401.876v-483.752h-72.386v483.751h72.386zM2081.545 375.393v-86.51c-42.372 35.31-86.511 52.966-130.649 52.966-49.435 0-91.807-17.655-125.351-52.966s-51.2-79.448-51.2-130.648 17.655-93.573 51.2-128.883 75.917-52.966 125.351-52.966c26.483 0 47.669 3.531 65.324 12.359 10.593 3.531 21.186 10.593 31.779 17.655s22.952 15.889 33.545 26.483v-88.276c-42.372-22.952-86.511-35.31-132.414-35.31-68.855 0-128.883 24.717-176.552 72.386-49.435 49.435-72.386 107.697-72.386 176.552 0 61.793 21.186 116.524 61.793 164.193 49.435 58.262 114.758 88.276 194.207 88.276 44.138 0 84.745-12.358 125.352-35.31zM2093.903 161.766c0 68.855 24.717 127.117 74.151 176.551s109.462 74.152 180.083 74.152c68.855 0 128.883-24.717 178.317-74.152s74.151-109.462 74.151-178.317-24.717-128.883-74.151-176.552c-49.434-49.434-109.462-72.386-181.849-72.386-61.793 0-118.289 21.186-167.724 65.324-56.497 44.138-82.979 107.697-82.979 185.379zM2166.289 160c0-52.966 17.655-97.103 54.731-132.414 35.311-35.31 77.683-51.2 123.586-51.2 51.2 0 93.573 17.655 128.883 52.966s52.965 79.448 52.965 130.648-17.655 95.338-51.2 130.649-77.683 52.965-127.117 52.965c-51.2 0-93.573-17.655-127.117-52.965-37.076-37.076-54.731-79.449-54.731-130.649zM3077.296-83.641l-370.758 411.365v-409.6h-30.014v483.751l370.758-407.834v407.834h30.014v-485.517zM3163.807 373.628v-176.552h194.207v-28.249h-194.207v-222.455h199.503v-28.248h-231.283v483.751h231.283v-28.248h-199.503zM3582.235 1.104l181.849 402.538 181.849-402.538 132.414 400.772h30.014l-164.193-485.517-183.614 409.6-185.38-409.6-162.428 485.517h30.014l139.476-400.772zM4208.993 401.876h33.545l143.007-245.407 143.007 245.407h33.545l-160.662-277.186v-206.565h-30.014v206.565l-162.427 277.186zM5026.427 163.531c0-135.945-114.758-248.938-250.703-248.938s-250.703 112.993-250.703 248.938 114.758 248.938 250.703 248.938c134.18 0 250.703-112.993 250.703-248.938zM4553.269 163.531c0-120.055 98.869-220.69 220.69-220.69 120.055 0 220.69 100.635 220.69 220.69s-100.635 220.689-220.69 220.689c-120.055 0-220.69-100.635-220.69-220.689zM5317.738-83.641h-35.31l-158.896 229.517h-15.89v-229.517h-30.014v485.517h60.028c38.842 0 77.683 0 111.227-24.717 35.31-24.717 49.435-63.558 49.435-104.165 0-84.745-58.262-127.117-139.476-127.117l158.896-229.517zM5148.248 175.89c30.014 0 60.028 1.766 84.745 22.952 22.952 19.421 33.545 47.669 33.545 75.917 0 35.31-15.89 72.386-51.2 88.276-26.483 12.358-58.262 10.593-86.511 10.593h-19.421v-197.738h38.842zM5617.876 401.876h40.607l-236.579-233.048 252.469-250.704h-40.607l-233.048 231.283-12.359-12.358v-218.924h-30.014v483.752h30.014v-225.986l229.517 225.986z" />
<glyph unicode="&#xe646;" glyph-name="icon_spinner" d="M275.917-76.18c0-10.947-8.873-19.82-19.82-19.82h-0.19c-10.947 0-19.82 8.873-19.82 19.82v90.311c0 10.952 8.873 19.82 19.82 19.82h0.19c10.947 0 19.82-8.868 19.82-19.82v-90.312zM275.917 305.864c0-10.947-8.873-19.82-19.82-19.82h-0.19c-10.947 0-19.82 8.873-19.82 19.82v90.317c-0.005 10.947 8.873 19.82 19.815 19.82h0.19c10.947 0 19.82-8.873 19.82-19.82v-90.317h0.005zM19.82 140.083c-10.947 0-19.82 8.878-19.82 19.819v0.19c0 10.947 8.873 19.82 19.82 19.82h90.311c10.947 0 19.82-8.873 19.82-19.82v-0.19c0-10.947-8.873-19.819-19.82-19.819h-90.311zM401.863 140.083c-10.947 0-19.815 8.873-19.815 19.819v0.19c0 10.947 8.868 19.82 19.815 19.82h90.317c10.947 0 19.82-8.873 19.82-19.82v-0.19c0-10.947-8.873-19.819-19.82-19.819h-90.317zM391.342-34.58c5.468-9.482 2.227-21.606-7.255-27.075l-0.164-0.097c-9.482-5.474-21.606-2.227-27.075 7.255l-45.154 78.208c-5.474 9.482-2.233 21.601 7.255 27.075l0.164 0.097c9.477 5.474 21.601 2.227 27.075-7.255l45.154-78.208zM200.315 296.279c5.474-9.482 2.222-21.601-7.255-27.074l-0.164-0.098c-9.482-5.474-21.601-2.227-27.075 7.255l-45.154 78.213c-5.474 9.482-2.227 21.601 7.255 27.074l0.164 0.092c9.482 5.474 21.601 2.227 27.075-7.255l45.154-78.208zM61.419 24.663c-9.482-5.473-21.602-2.227-27.075 7.255l-0.092 0.164c-5.474 9.482-2.227 21.606 7.255 27.075l78.213 45.154c9.482 5.473 21.601 2.232 27.075-7.255l0.097-0.164c5.474-9.477 2.227-21.596-7.255-27.070l-78.218-45.159zM392.279 215.685c-9.482-5.474-21.596-2.227-27.070 7.255l-0.098 0.164c-5.474 9.482-2.233 21.601 7.255 27.075l78.208 45.158c9.482 5.474 21.606 2.227 27.075-7.255l0.103-0.164c5.468-9.482 2.222-21.601-7.26-27.074l-78.213-45.159zM470.498 59.157c9.482-5.468 12.728-17.598 7.255-27.075l-0.098-0.164c-5.468-9.477-17.598-12.723-27.075-7.255l-78.208 45.154c-9.482 5.474-12.728 17.598-7.255 27.075l0.092 0.169c5.474 9.482 17.603 12.723 27.079 7.25l78.208-45.154zM139.632 250.179c9.477-5.474 12.723-17.597 7.255-27.075l-0.097-0.164c-5.474-9.482-17.593-12.728-27.075-7.255l-78.213 45.159c-9.482 5.474-12.729 17.592-7.255 27.075l0.097 0.164c5.474 9.482 17.593 12.728 27.075 7.255l78.213-45.158zM155.151-54.497c-5.468-9.482-17.593-12.729-27.075-7.26l-0.159 0.102c-9.482 5.468-12.728 17.598-7.255 27.070l45.154 78.213c5.474 9.482 17.597 12.729 27.075 7.255l0.164-0.097c9.482-5.474 12.728-17.598 7.255-27.070l-45.159-78.213zM346.178 276.368c-5.474-9.482-17.598-12.723-27.075-7.255l-0.159 0.097c-9.488 5.474-12.733 17.592-7.255 27.075l45.148 78.213c5.474 9.482 17.603 12.728 27.075 7.255l0.169-0.092c9.477-5.474 12.723-17.597 7.25-27.075l-45.154-78.218z" />
<glyph unicode="&#xe900;" glyph-name="elections-logo" d="M185.344 178.091l-14.080-14.422 35.072-36.522 92.501 95.744-14.080 14.422-78.421-80.981-20.992 21.76zM273.152 162.219v-1.109c0-18.774-6.656-34.816-19.882-48.043s-29.269-19.882-48.042-19.882-34.816 6.656-48.042 19.882-19.882 29.269-19.882 48.043 6.656 34.816 19.882 48.042 29.269 19.882 48.042 19.882c5.547 0 10.922-0.683 16.042-1.963 5.206-1.365 10.070-3.072 14.592-5.206l11.946 12.63c-6.23 3.584-12.97 6.486-20.053 8.534s-14.678 3.072-22.613 3.072c-11.606 0-22.528-2.219-32.853-6.656s-19.37-10.496-27.136-18.262c-7.68-7.68-13.824-16.64-18.261-26.88s-6.656-21.248-6.656-33.024 2.219-22.87 6.656-33.024c4.438-10.24 10.496-19.2 18.261-26.88 7.68-7.68 16.726-13.824 27.136-18.261 10.326-4.438 21.334-6.656 32.853-6.656 11.776 0 22.869 2.219 33.024 6.656 10.24 4.438 19.2 10.496 26.88 18.261s13.824 16.64 18.262 26.88c4.438 10.24 6.656 21.248 6.656 33.024 0 2.901-0.086 5.718-0.341 8.534-0.256 2.731-0.683 5.632-1.45 8.534l-15.019-16.128zM20.822 92.075c0.256 27.477 8.704 38.912 39.083 53.163 21.675 9.045 46.507 23.296 46.507 53.845 0 30.037-19.968 48.64-52.053 48.64-32 0.085-54.358-22.016-54.358-54.186v-0.597h18.006l0.598 0.597v0.597c0 22.016 14.080 36.267 35.755 36.267 20.566 0 33.365-11.52 33.365-30.037 0-22.869-16.213-31.488-37.462-40.448-34.133-14.933-50.346-31.317-50.346-84.394v-0.598h107.179v17.152h-86.272zM354.048 245.163l-0.598-0.597v-0.597c0-19.712-5.12-26.709-34.219-26.709h-0.598v-15.702h33.622v-126.72h19.115v170.326h-17.322zM454.656 72.192c-32.426 0-56.832 24.406-56.832 56.832 0 11.264 3.243 22.272 9.558 32.512l51.627 83.029 22.101 0.597-39.51-61.867c4.182 1.877 9.387 2.56 13.142 2.56 33.195 0 57.344-23.893 57.344-56.832-0.086-32.341-24.747-56.832-57.43-56.832zM454.656 168.704c-21.76 0-38.229-17.066-38.229-39.68 0-22.442 16.384-39.424 38.23-39.424 22.442 0 38.656 16.555 38.656 39.424 0.086 22.955-16.214 39.68-38.656 39.68z" />
</font>
</defs>
</svg>
